Важное объявление!
У Нас Все раздачи мультитрекерные, при нуле пиров в релизах, можете смело вставать на закачку!
Статистика раздачи
Размер:     |    Зарегистрирован:     |    Скачан:     |   
Нет
 
     
 
 
Автор Сообщение

HUNTER

Стаж:
5 лет 1 месяц
Сообщений:
68439

Репутация: 101

[+] [-]
Вне форума [Профиль] [ЛС]

Путь ноги и кулака / The Foot Fist Way
Страна: США
Жанр: комедия
Год выпуска: 2006
Продолжительность: 01:18:31
Перевод: Профессиональный (многоголосый закадровый) Paramount channel
Cубтитры: нет
Оригинальная аудиодорожка: английский
Режиссер: Джоди Хилл / Jody Hill
В ролях: Дэнни МакБрайд, Мэри Джейн Бостич, Бен Бест, Спенсер Морено, Карлос Лопез, Джоди Хилл, Кен Агиляр, Коллетт Вульф, Джефф Хоффман, Дебора Лотс
Описание: «Путь ноги и кулака» — так переводится с корейского название одного из видов восточных единоборств — таэквондо. У себя в маленьком городке Фред Симмонс слывет настоящим мастером этого боевого искусства.
Но когда выплывает наружу факт, что его обожаемая жена изменяет ему, в глазах окружающих из крутого парня он превращается в посмешище. Не в силах вытерпеть муки оскорбленного самолюбия, Фред покидает городок и пускается в паломничество с целью найти своего кумира — короля таэквондо Чака «Трака» Уоллеса…
Сэмпл: http://multi-up.com/1119036
[img]https://rating.kinopoisk.ru/250058.gif[/img]
Тип релиза: HDTV 1080i
Контейнер: TS
Видео: AVC/H.264, PAL, 1920х1080 (16:9), 25 fps, 4510 Кбит/сек
Аудио 1: русский, MP2, 48000 Hz, 192 Кбит/сек, 2 ch
Аудио 2: английский, AC-3, 48000 Hz, 192 Кбит/сек, 2 ch

MediaInfo

Общее
Идентификатор : 1 (0x1)
Полное имя : D:\Раздачи\Путь ноги и кулака.ts
Формат : MPEG-TS
Размер файла : 2,83 Гбайт
Продолжительность : 1 ч. 18 м.
Режим общего битрейта : Переменный
Общий поток : 5153 Кбит/сек
Видео
Идентификатор : 513 (0x201)
Идентификатор меню : 1 (0x1)
Формат : AVC
Формат/Информация : Advanced Video Codec
Профиль формата : High@L4.0
Параметр CABAC формата : Да
Параметр ReFrames формата : 4 кадра
Идентификатор кодека : 27
Продолжительность : 1 ч. 18 м.
Вид битрейта : Переменный
Битрейт : 4510 Кбит/сек
Максимальный битрейт : 5000 Кбит/сек
Ширина : 1920 пикселей
Высота : 1080 пикселей
Соотношение сторон : 16:9
Режим частоты кадров : Переменный
Цветовое пространство : YUV
Субдискретизация насыщенности : 4:2:0
Битовая глубина : 8 бит
Тип развёртки : MBAFF
Порядок развёртки : Верхнее поле первое
Размер потока : 2,47 Гбайт (88%)
Аудио #1
Идентификатор : 514 (0x202)
Идентификатор меню : 1 (0x1)
Формат : MPEG Audio
Версия формата : Version 1
Профиль формата : Layer 2
Идентификатор кодека : 3
Продолжительность : 1 ч. 18 м.
Вид битрейта : Постоянный
Битрейт : 192 Кбит/сек
Каналы : 2 канала
Частота : 48,0 КГц
Метод сжатия : С потерями
Размер потока : 108 Мбайт (4%)
Аудио #2
Идентификатор : 515 (0x203)
Идентификатор меню : 1 (0x1)
Формат : AC-3
Формат/Информация : Audio Coding 3
Расширение режима : CM (complete main)
Параметр Endianness формата : Big
Идентификатор кодека : 129
Продолжительность : 1 ч. 18 м.
Вид битрейта : Постоянный
Битрейт : 192 Кбит/сек
Каналы : 2 канала
Расположение каналов : Front: L R
Частота : 48,0 КГц
Битовая глубина : 16 бит
Метод сжатия : С потерями
Размер потока : 108 Мбайт (4%)

Скриншот с названием фильма

Скриншоты


_________________
Показать сообщения:    

Текущее время: Сегодня 04:20

Часовой пояс: GMT



Вы не можете начинать темы
Вы не можете отвечать на сообщения
Вы не можете редактировать свои сообщения
Вы не можете удалять свои сообщения
Вы не можете голосовать в опросах
Вы не можете прикреплять файлы к сообщениям
Вы не можете скачивать файлы