Важное объявление!
У Нас Все раздачи мультитрекерные, при нуле пиров в релизах, можете смело вставать на закачку!
Статистика раздачи
Размер:     |    Зарегистрирован:     |    Скачан:     |   
Нет
 
     
 
 
Автор Сообщение

HUNTER

Стаж:
5 лет
Сообщений:
68018

Репутация: 101

[+] [-]
Вне форума [Профиль] [ЛС]

Путь к тайменю. Фильм 2
Год выпуска: 2008
Страна: Россия
Жанр: документальный, рыбалка
Продолжительность: 01:34:20
Режиссер: Е.Медведев
В ролях: Участники клуба рыболовов и охотников Амурской области "Амур-Таймень"
Описание: Вторая часть фильма об увлекательном путешествии к горным рекам Дальнего Востока в поисках царской рыбы - тайменя.-Первый фильм вот тут http://rutracker.org/forum/viewtopic.php?t=3191828-За DVD http://rutracker.org/forum/viewtopic.php?t=3272011 спасибо Kimi_ser-Качество: DVDRip
Формат: AVI
Видео кодек: XviD
Аудио кодек: MP3
Видео: 720x408 (1.76:1), 25 fps, XviD build 50 ~1882 kbps avg, 0.26 bit/pixel
Аудио: 48 kHz, MPEG Layer 3, 2 ch, ~128.00 kbps avg

Отчёт MediaInfo / лог рипа:

General
Count : 265
Count of stream of this kind : 1
Kind of stream : General
Kind of stream : General
Stream identifier : 0
Count of video streams : 1
Count of audio streams : 1
Video_Format_List : MPEG-4 Visual
Video_Format_WithHint_List : MPEG-4 Visual (XviD)
Codecs Video : XviD
Audio_Format_List : MPEG Audio
Audio_Format_WithHint_List : MPEG Audio (MP3)
Audio codecs : MPEG-1 Audio layer 3
Complete name : D:\Put_k_taimenu_2_DVDRip.avi
Folder name : D:
File name : Put_k_taimenu_2_DVDRip
File extension : avi
Format : AVI
Format : AVI
Format/Info : Audio Video Interleave
Format/Extensions usually used : avi
InternetMediaType : video/vnd.avi
Interleaved : Yes
Codec : AVI
Codec : AVI
Codec/Info : Audio Video Interleave
Codec/Extensions usually used : avi
File size : 1429852160
File size : 1.33 GiB
File size : 1 GiB
File size : 1.3 GiB
File size : 1.33 GiB
File size : 1.332 GiB
Duration : 5660760
Duration : 1h 34mn
Duration : 1h 34mn 20s 760ms
Duration : 1h 34mn
Duration : 01:34:20.760
Overall bit rate : 2020721
Overall bit rate : 2 021 Kbps
Stream size : 6873540
Stream size : 6.56 MiB (0%)
Stream size : 7 MiB
Stream size : 6.6 MiB
Stream size : 6.56 MiB
Stream size : 6.555 MiB
Stream size : 6.56 MiB (0%)
Proportion of this stream : 0.00481
File creation date : UTC 2010-11-21 11:59:23.296
File creation date (local) : 2010-11-21 13:59:23.296
File last modification date : UTC 2010-11-21 12:01:52.578
File last modification date (loc : 2010-11-21 14:01:52.578
Writing application : VirtualDubMod 1.5.10.2 (build 2540/release)
Writing library : VirtualDubMod build 2540/release
Writing library : VirtualDubMod build 2540/release
Video
Count : 165
Count of stream of this kind : 1
Kind of stream : Video
Kind of stream : Video
Stream identifier : 0
ID : 0
ID : 0
Format : MPEG-4 Visual
Format profile : Advanced Simple@L5
Format settings : BVOP
Format settings, BVOP : Yes
Format settings, BVOP : Yes
Format settings, QPel : No
Format settings, QPel : No
Format settings, GMC : 0
Format settings, GMC : No warppoints
Format settings, Matrix : Default (MPEG)
Format settings, Matrix : Default (MPEG)
InternetMediaType : video/MP4V-ES
Codec ID : XVID
Codec ID/Hint : XviD
Codec ID/Url : http://mediaarea.net/XVID
Codec : XVID
Codec : XviD
Codec/Family : MPEG-4V
Codec/Info : XviD project
Codec/Url : http://www.xvid.org/Downloads.15.0.html
Codec/CC : XVID
Codec profile : Advanced Simple@L5
Codec settings : BVOP
Codec settings, Packet bitstream : No
Codec settings, BVOP : Yes
Codec settings, QPel : No
Codec settings, GMC : 0
Codec settings, GMC : No warppoints
Codec settings, Matrix : Default (MPEG)
Duration : 5660760
Duration : 1h 34mn
Duration : 1h 34mn 20s 760ms
Duration : 1h 34mn
Duration : 01:34:20.760
Bit rate : 1883007
Bit rate : 1 883 Kbps
Width : 720
Width : 720 pixels
Height : 408
Height : 408 pixels
Pixel aspect ratio : 1.000
Display aspect ratio : 1.765
Display aspect ratio : 16:9
Frame rate : 25.000
Frame rate : 25.000 fps
Frame count : 141519
Resolution : 8
Resolution : 8 bits
Colorimetry : 4:2:0
Scan type : Progressive
Scan type : Progressive
Interlacement : PPF
Interlacement : Progressive
Bits/(Pixel*Frame) : 0.256
Delay : 0
Delay : 00:00:00.000
Stream size : 1332406460
Stream size : 1.24 GiB (93%)
Stream size : 1 GiB
Stream size : 1.2 GiB
Stream size : 1.24 GiB
Stream size : 1.241 GiB
Stream size : 1.24 GiB (93%)
Proportion of this stream : 0.93185
Writing library : XviD0050
Writing library : XviD 1.2.1 (UTC 2008-12-04)
Writing library/Name : XviD
Writing library/Version : 1.2.1
Writing library/Date : UTC 2008-12-04
Audio
Count : 136
Count of stream of this kind : 1
Kind of stream : Audio
Kind of stream : Audio
Stream identifier : 0
ID : 1
ID : 1
Format : MPEG Audio
Format version : Version 1
Format profile : Layer 3
InternetMediaType : audio/mpeg
Codec ID : 55
Codec ID/Hint : MP3
Codec ID/Url : http://www.iis.fraunhofer.de/amm/index.html
Codec : MPA1L3
Codec : MPEG-1 Audio layer 3
Codec/Family : MPEG-1
Codec/Info : MPEG-1 or 2 layer 3
Codec/Url : http://www.iis.fraunhofer.de/amm/index.html
Codec/CC : 55
Duration : 5660760
Duration : 1h 34mn
Duration : 1h 34mn 20s 760ms
Duration : 1h 34mn
Duration : 01:34:20.760
Bit rate mode : CBR
Bit rate mode : Constant
Bit rate : 128000
Bit rate : 128 Kbps
Channel(s) : 2
Channel(s) : 2 channels
Sampling rate : 48000
Sampling rate : 48.0 KHz
SamplingCount : 271716480
Delay : 0
Delay : 00:00:00.000
Video delay : 0
Video0 delay : 0
Stream size : 90572160
Stream size : 86.4 MiB (6%)
Stream size : 86 MiB
Stream size : 86 MiB
Stream size : 86.4 MiB
Stream size : 86.38 MiB
Stream size : 86.4 MiB (6%)
Proportion of this stream : 0.06334
Alignment : Aligned
Alignment : Aligned on interleaves
Interleave, duration : 1.00
Interleave, duration : 40
Interleave, duration : 40 ms (1.00 video frame)
Interleave, preload duration : 504
Interleave, preload duration : 504 ms
Writing library : LAME3.98r
Writing library : LAME3.98r
Encoding settings : -m s -V 4 -q 2 -lowpass 17 -b 128

Скриншоты


_________________
Показать сообщения:    

Текущее время: Сегодня 12:43

Часовой пояс: GMT



Вы не можете начинать темы
Вы не можете отвечать на сообщения
Вы не можете редактировать свои сообщения
Вы не можете удалять свои сообщения
Вы не можете голосовать в опросах
Вы не можете прикреплять файлы к сообщениям
Вы не можете скачивать файлы