Важное объявление!
У Нас Все раздачи мультитрекерные, при нуле пиров в релизах, можете смело вставать на закачку!
 
Автор Сообщение

HUNTER

Стаж:
4 года 5 месяцев
Сообщений:
60857

Репутация: 101

[+] [-]
Вне форума [Профиль] [ЛС]

Путь к славе / Поезд мчится к славе / Bound for Glory
Страна: США
Студия: United Artists
Жанр: драма, музыка, биография
Год выпуска: 1976
Продолжительность: 02:22:03
Перевод: Профессиональный (двухголосый закадровый) НТВ+
Cубтитры: английские
Оригинальная аудиодорожка: английский
Режиссер: Хэл Эшби / Hal Ashby
В ролях: Дэвид Кэррадайн, Ронни Кокс, Мелинда Диллон, Гэйл Стриклэнд, Джон Лен, Рэнди Куэйд, Элизабет Мэйси, Сьюзэн Вэйл, Сара Вэйл
Описание: Фильм снят по одноименной автобиографической книге американского фолк-музыканта Вуди Гатри и охватывает отрезок его жизни в годы Великой депрессии. Действие фильма начинается 1936 году, в городке Пампа, штат Техас, из которого уставший от нищеты и безработицы Гатри автостопом отправляется на поиски лучшей жизни в Калифорнию...

IMDB
Доп. информация:
За оригинальную дорогу спасибо bobrm2
Тип релиза: HDTV 1080i
Контейнер: MKV
Видео: AVC 1920x1080 (16:9) 25.0fps Bit rate 5922Kbps
Аудио 1: MP2 48.0KHz 2ch 192 Kbps rus dvo
Аудио 2: AC3 48.0KHz 2ch 192 Kbps eng
Формат субтитров: softsub (SRT)

MediaInfo

Общее
Уникальный идентификатор : 252653150350074013585745631838195648507 (0xBE133A0E460A6BCC91181B43DC8387FB)
Полное имя : E:\torrent\Bound.For.Glory.1976.HDTV1080i.mkv
Формат : Matroska
Версия формата : Version 4 / Version 2
Размер файла : 6,38 Гбайт
Продолжительность : 2 ч. 22 м.
Общий поток : 6434 Кбит/сек
Дата кодирования : UTC 2014-02-16 06:52:34
Программа кодирования : mkvmerge v6.7.0 ('Back to the Ground') 32bit built on Jan 8 2014 15:03:17
Библиотека кодирования : libebml v1.3.0 + libmatroska v1.4.1
Видео
Идентификатор : 1
Формат : AVC
Формат/Информация : Advanced Video Codec
Профиль формата : High@L4.0
Параметр CABAC формата : Да
Параметр ReFrames формата : 3 кадра
Параметр GOP формата : M=4, N=32
Идентификатор кодека : V_MPEG4/ISO/AVC
Продолжительность : 2 ч. 22 м.
Битрейт : 5922 Кбит/сек
Ширина : 1920 пикселей
Высота : 1080 пикселей
Соотношение сторон : 16:9
Режим частоты кадров : Постоянный
Частота кадров : 25,000 кадров/сек
Стандарт вещания : Component
Цветовое пространство : YUV
Субдискретизация насыщенности : 4:2:0
Битовая глубина : 8 бит
Тип развёртки : Чересстрочная
Порядок развёртки : Верхнее поле первое
Бит/(Пиксели*Кадры) : 0.114
Размер потока : 5,88 Гбайт (92%)
Заголовок : Bound.For.Glory.1976.HDTV1080i
Default : Да
Forced : Нет
Основные цвета : BT.709
Характеристики трансфера : BT.709
Коэффициенты матрицы : BT.709
Аудио #1
Идентификатор : 2
Формат : MPEG Audio
Версия формата : Version 1
Профиль формата : Layer 2
Идентификатор кодека : A_MPEG/L2
Идентификатор кодека/Подсказка : MP2
Продолжительность : 2 ч. 22 м.
Вид битрейта : Постоянный
Битрейт : 192 Кбит/сек
Каналы : 2 канала
Частота : 48,0 КГц
Метод сжатия : С потерями
Размер потока : 195 Мбайт (3%)
Заголовок : Bound.For.Glory_MP2_2ch_rus_dvo_NTV+
Язык : Russian
Default : Да
Forced : Нет
Аудио #2
Идентификатор : 3
Формат : AC-3
Формат/Информация : Audio Coding 3
Расширение режима : CM (complete main)
Параметр Endianness формата : Big
Идентификатор кодека : A_AC3
Продолжительность : 2 ч. 22 м.
Вид битрейта : Постоянный
Битрейт : 192 Кбит/сек
Каналы : 2 канала
Расположение каналов : Front: L R
Частота : 48,0 КГц
Битовая глубина : 16 бит
Метод сжатия : С потерями
Размер потока : 195 Мбайт (3%)
Заголовок : Bound.For.Glory_AC3_2ch_original eng
Язык : English
Default : Нет
Forced : Нет
Текст
Идентификатор : 4
Формат : UTF-8
Идентификатор кодека : S_TEXT/UTF8
Идентификатор кодека/Информация : UTF-8 Plain Text
Заголовок : Bound For Glory 1976_subtitle eng
Язык : English
Default : Нет
Forced : Нет

Скриншот с названием фильма

Скриншоты

Сравнение с DVD



_________________
Показать сообщения:    

Текущее время: Сегодня 23:11

Часовой пояс: GMT



Вы не можете начинать темы
Вы не можете отвечать на сообщения
Вы не можете редактировать свои сообщения
Вы не можете удалять свои сообщения
Вы не можете голосовать в опросах
Вы не можете прикреплять файлы к сообщениям
Вы не можете скачивать файлы
Наши партнеры: интернет магазин Ивановского трикотажа textilla.ru