Ивановский Торрент трекер
Яндекс.Погода
 

[Цитировать]
HUNTER

Путешествия Гулливера / Gulliver's Travels- Страна: США / Fleischer Studios
Жанр: Полнометражный мультфильм
Продолжительность: 01:16:21
Год выпуска: 1939
Перевод : Профессиональный (многоголосый закадровый) (Лучший из переводов)
Русские субтитры: нет-Режиссёр: Макс Флейшер / Maх Fleischer
Роли озвучивали: Джессика Драгонетте, Лэнни Росс, Пинто Колвиг, Джек Мерсер, Сэм Паркер, Тед Пирс-Описание: ~По мотивам бессмертной повести Джонатана Свифта. После кораблекрушения молодой Гулливер оказался на неизвестном острове в плену у жителей страны Лилипутия. Само название страны говорит о том, как выглядят ее обитатели. Вначале жители Лилипутии встречают Гулливера вполне приветливо. И вот он узнает, что Лилипутия находится в состоянии войны с соседним островом Блефуску. Однако после того как он использовал свой гигантский рост, чтобы организовать секретное свидание принца Песто с его возлюбленной принцессой Мариной, Гулливера стали считать шпионом…
Сейчас только настоящий подвиг может положить конец этой изнурительной войне между двумя соперничающими королевствами, населенными крошечными жителями… Удастся ли Гулливеру прекратить междоусобицу? (КиноПоиск.Ru)
-Доп. информация:
Оскар, 1940
Номинации (2):
* Лучшая песня — «Faithful Forever»
* Лучший оригинальный саундтрек

Знаете ли вы...

* Более 700 художников рисовали мультфильм вручную 18 месяцев. Было использовано 12 тонн краски и 39000 карандашей. Если разложить раскадровку от листа к листу, получится лента длиной 27 миль.
* Это первый полнометражный анимационный фильм созданный независимой студией «Fleischer Studios», до этого только компания «Walt Disney Pictures» создавала большие мультфильмы.
* Для производства была применена новая и по тем временам самая прогрессивная технология «rotoscoped» — метод, когда вначале снимается живой актер в данном случае сам Гулливер, а затем полученное изображение обрисовывалось мультипликатором и при этом создавалось очень реалистично движущаяся картинка. Этот метод мультипликации многие годы активно использовался и в СССР.
Релиз: Рип, работа со звуком,постер - анвад -
В рип выбрал именно этот перевод, так как предпочел его самым достойным из всех имеющихся. Великолепные голоса, игра + рифмованный текст как в оригинале.-В семпле присутствуют все имеющие на данный момент переводы с фрагментом на рекомендацию, ну а в раздаче разумеется только одна дорога!-Семпл
Качество: BDRip (Исходник Blu-ray Disc от Thunderbean Animation)
Формат: AVI
Видео: 720x544 (4:3), 23.976 fps, XviD build 65, 2390 kbps, 0.254 bit/pixel
Аудио : [RUS] AC3, 2/0 ch, 48 kHz, 192 kbps |Многоголосый закадровый|

MediaInfo

Общее
Полное имя : H:\Gulliver's.Travels.1939.BDRip MVO.avi
Формат : AVI
Формат/Информация : Audio Video Interleave
Размер файла : 1,38 Гбайт
Продолжительность : 1 ч. 16 м.
Общий поток : 2591 Кбит/сек
Программа кодирования : VirtualDubMod 1.5.10.3 | www.virtualdub-fr.org || (build 2550/release)
Библиотека кодирования : VirtualDubMod build 2550/release
Видео
Идентификатор : 0
Формат : MPEG-4 Visual
Профиль формата : Advanced Simple@L5
Параметр BVOP формата : 2
Параметр QPel формата : Нет
Параметр GMC формата : Без точки перехода
Параметр матрицы формата : Выборочная
Идентификатор кодека : XVID
Идентификатор кодека/Подсказка : XviD
Продолжительность : 1 ч. 16 м.
Битрейт : 2390 Кбит/сек
Ширина : 720 пикселей
Высота : 544 пикселя
Соотношение сторон : 4:3
Частота кадров : 23,976 кадра/сек
Цветовое пространство : YUV
Субдискретизация насыщенности : 4:2:0
Битовая глубина : 8 бит
Тип развёртки : Прогрессивная
Метод сжатия : С потерями
Бит/(Пиксели*Кадры) : 0.254
Размер потока : 1,27 Гбайт (92%)
Библиотека кодирования : XviD 65
Аудио
Идентификатор : 1
Формат : AC-3
Формат/Информация : Audio Coding 3
Расширение режима : CM (complete main)
Параметр Endianness формата : Big
Идентификатор кодека : 2000
Продолжительность : 1 ч. 16 м.
Вид битрейта : Постоянный
Битрейт : 192 Кбит/сек
Каналы : 2 канала
Расположение каналов : Front: L R
Частота : 48,0 КГц
Битовая глубина : 16 бит
Метод сжатия : С потерями
Размер потока : 105 Мбайт (7%)
Выравнивание : Разделение по промежуткам
Продолжительность промежутка : 42 мс. (1,00 видеокадр)
Время предзагрузки промежутка : 500 мс.
--Приятного просмотра!


Показать сообщения:    

Текущее время: 11-Дек 11:40

Часовой пояс: UTC ± 0


Вы не можете начинать темы
Вы не можете отвечать на сообщения
Вы не можете редактировать свои сообщения
Вы не можете удалять свои сообщения
Вы не можете голосовать в опросах
Вы не можете прикреплять файлы к сообщениям
Вы не можете скачивать файлы

!ВНИМАНИЕ!
Сайт не предоставляет электронные версии произведений, а занимается лишь коллекционированием и каталогизацией ссылок, присылаемых и публикуемых на форуме нашими читателями. Если вы являетесь правообладателем какого-либо представленного материала и не желаете, чтобы ссылка на него находилась в нашем каталоге, свяжитесь с нами, и мы незамедлительно удалим ее. Файлы для обмена на трекере предоставлены пользователями сайта, и администрация не несет ответственности за их содержание. Просьба не заливать файлы, защищенные авторскими правами, а также файлы нелегального содержания!