Важное объявление!
У Нас Все раздачи мультитрекерные, при нуле пиров в релизах, можете смело вставать на закачку!
 
Автор Сообщение

HUNTER

Стаж:
4 года 10 месяцев
Сообщений:
65531

Репутация: 101

[+] [-]
Вне форума [Профиль] [ЛС]

Путешествия Гулливера / Gulliver's Travels
Страна: США (GoldenFilms)
Жанр: Мультфильм, семейный
Продолжительность: 00:47:07
Год выпуска: 1996
Перевод: Профессиональный (дублированный)
Русские субтитры: нет
Режиссёр: Диана Эшкенази / Diane Eskenazi-Описание: После кораблекрушения молодой Гулливер оказался на неизвестном острове в плену у жителей страны Лилипутия, каждый из которых был ростом с большой палец. Завоевав доверие лилипутов, Гулливер стал помогать жителям королевства, используя свой огромный рост.
В то время Лилипутия находилась в состоянии войны с соседним островом Ла Фуско. После того как Гулливер помог принцу Песто тайно встретиться с его возлюбленной принцессой Мариной, его стали считать шпионом… Гулливер прилагает все усилия, чтобы положить конец изнурительной войне между двумя королевствами, населенными крошечными жителями.-Качество: DVB
Формат: TS
Видео: 528x576 (4:3) @ 768x576, 25.000 fps, MPEG-2 Video, ~2800 Kbps
Аудио 1: 48.0 KHz, MPEG-1 Audio layer 2, 1 ch, 96 Kbps (Русский)
Аудио 2: 48.0 KHz, MPEG-1 Audio layer 2, 1 ch, 96 Kbps (English)
Субтитры: отсутствуют
Релиз: Благодарность xfiles за запись мультфильма.

Подробные технические данные

ОбщееИдентификатор : 1 (0x1)Полное имя : C:\CTC\OTHER\Gulliver_s Travels 1996 GoldenFilms JimJam.rus Dub.eng.tsФормат : MPEG-TSРазмер файла : 1,07 ГбайтПродолжительность : 47 м.Режим общего битрейта : ПеременныйОбщий поток : 3243 Кбит/секМаксимальный общий битрейт : 35,5 Мбит/сек
ВидеоИдентификатор : 4113 (0x1011)Идентификатор меню : 1 (0x1)Формат : MPEG VideoВерсия формата : Version 2Профиль формата : Main@MainПараметр BVOP формата : ДаПараметр матрицы формата : ВыборочнаяПараметр GOP формата : M=3, N=12Структура изображения : FrameИдентификатор кодека : 2Продолжительность : 47 м.Вид битрейта : ПеременныйБитрейт : 2889 Кбит/секМаксимальный битрейт : 5000 Кбит/секШирина : 528 пикселейВысота : 576 пикселейСоотношение сторон : 4:3Частота кадров : 25,000 кадров/секЦветовое пространство : YUVСубдискретизация насыщенности : 4:2:0Битовая глубина : 8 битТип развёртки : ЧересстрочнаяПорядок развёртки : Верхнее поле первоеМетод сжатия : С потерямиБит/(Пиксели*Кадры) : 0.380Временной код первого кадра : 00:00:00:00Оригинал временного кода : Group of pictures headerGOP, открыто/закрыто : ОткрытоGOP, открыто/закрыто на первом кадре : ЗакрытоРазмер потока : 974 Мбайт (89%)
Аудио #1Идентификатор : 4352 (0x1100)Идентификатор меню : 1 (0x1)Формат : MPEG AudioВерсия формата : Version 1Профиль формата : Layer 2Идентификатор кодека : 4Продолжительность : 47 м.Вид битрейта : ПостоянныйБитрейт : 96,0 Кбит/секКаналы : 1 каналЧастота : 48,0 КГцМетод сжатия : С потерямиРазмер потока : 32,4 Мбайт (3%)Язык : Russian
Аудио #2Идентификатор : 4353 (0x1101)Идентификатор меню : 1 (0x1)Формат : MPEG AudioВерсия формата : Version 1Профиль формата : Layer 2Идентификатор кодека : 4Продолжительность : 47 м.Вид битрейта : ПостоянныйБитрейт : 96,0 Кбит/секКаналы : 1 каналЧастота : 48,0 КГцМетод сжатия : С потерямиРазмер потока : 32,4 Мбайт (3%)Язык : English

Скриншоты



_________________
Показать сообщения:    

Текущее время: Сегодня 10:36

Часовой пояс: GMT



Вы не можете начинать темы
Вы не можете отвечать на сообщения
Вы не можете редактировать свои сообщения
Вы не можете удалять свои сообщения
Вы не можете голосовать в опросах
Вы не можете прикреплять файлы к сообщениям
Вы не можете скачивать файлы