Ивановский Торрент трекер
Яндекс.Погода
 

[Цитировать]
Game

Путешествие на Запад: Покорение демонов / Journey to the West: Conquering the Demons / Daai wa sai you chi Chui mo chun kei / Xi You Xiang Mo Pian
Страна: Китай
Жанр: фэнтези, комедия, приключения
Год выпуска: 2013
Продолжительность: 01:49:54-Перевод: любительский двухголосый закадровый - Ольга Гринтиева и Виктор Ерёменко -
Переводчик: Марина Торлин
Звук: GREEN TEA
Рип: Public Enemy (((
Постер: GREEN TEA
Cубтитры: (китайские, английские неотключаемые)
Оригинальная аудиодорожка: нет-Режиссер: Стивен Чоу / Stephen Chow, Дерек Квок / Chi-kin Kwok-В ролях: Бо Хуанг, Чжан Вэнь, Шу Ци, Шоу Луо, Крисси Чау, Чи Чи Линг, Мин Хун Фанг, Ю Хин-Описание: Фильм повествует о путешествии монаха Сюаньцзана по Шёлковому пути в Индию за буддийскими сутрами. Главным действующим лицом, однако, является не сам Сюаньцзан, играющий весьма пассивную роль, а его спутник — царь обезьян Сунь Укун. Среди других спутников Сюаньцзана — комический получеловек-полусвинья Чжу Бацзе, монах Ша Сэн и белая лошадь-дракон, которая была принцем.-Релиз группы GREEN TEA - - -Качество видео: HDRip (720p)
Формат видео: AVI
Видео: XviD, 720x304 (2.37:1), 25 fps, 1692 kbps avg, 0.31 bit/pixel
Аудио: Русский MPEG layer 3, 192 kbps-

MediaInfo

Format : AVI
Format/Info : Audio Video Interleave
File size : 1.45 GiB
Duration : 1h 49mn
Overall bit rate : 1 894 Kbps
Writing application : VirtualDubMod 1.5.10.2 (build 2540/release)
Writing library : VirtualDubMod build 2540/release
Video
ID : 0
Format : MPEG-4 Visual
Format profile : Advanced Simple@L5
Format settings, BVOP : 1
Format settings, QPel : No
Format settings, GMC : No warppoints
Format settings, Matrix : Custom
Codec ID : XVID
Codec ID/Hint : XviD
Duration : 1h 49mn
Bit rate : 1 693 Kbps
Width : 720 pixels
Height : 304 pixels
Display aspect ratio : 2.35:1
Frame rate : 25.000 fps
Color space : YUV
Chroma subsampling : 4:2:0
Bit depth : 8 bits
Scan type : Progressive
Compression mode : Lossy
Bits/(Pixel*Frame) : 0.309
Stream size : 1.30 GiB (89%)
Writing library : XviD 73
Audio
ID : 1
Format : MPEG Audio
Format version : Version 1
Format profile : Layer 3
Mode : Joint stereo
Codec ID : 55
Codec ID/Hint : MP3
Duration : 1h 49mn
Bit rate mode : Constant
Bit rate : 192 Kbps
Channel(s) : 2 channels
Sampling rate : 48.0 KHz
Compression mode : Lossy
Stream size : 151 MiB (10%)
Alignment : Aligned on interleaves
Interleave, duration : 40 ms (1.00 video frame)
Interleave, preload duration : 504 ms

Скриншот с названием

Скриншоты

[Цитировать]
HUNTER

скриншот с названием порадовал
Показать сообщения:    

Текущее время: 19-Сен 12:44

Часовой пояс: UTC - 1


Вы не можете начинать темы
Вы не можете отвечать на сообщения
Вы не можете редактировать свои сообщения
Вы не можете удалять свои сообщения
Вы не можете голосовать в опросах
Вы не можете прикреплять файлы к сообщениям
Вы не можете скачивать файлы

!ВНИМАНИЕ!
Сайт не предоставляет электронные версии произведений, а занимается лишь коллекционированием и каталогизацией ссылок, присылаемых и публикуемых на форуме нашими читателями. Если вы являетесь правообладателем какого-либо представленного материала и не желаете, чтобы ссылка на него находилась в нашем каталоге, свяжитесь с нами, и мы незамедлительно удалим ее. Файлы для обмена на трекере предоставлены пользователями сайта, и администрация не несет ответственности за их содержание. Просьба не заливать файлы, защищенные авторскими правами, а также файлы нелегального содержания!