Важное объявление!
У Нас Все раздачи мультитрекерные, при нуле пиров в релизах, можете смело вставать на закачку!
Статистика раздачи
Размер:     |    Зарегистрирован:     |    Скачан:     |   
Нет
 
     
 
 
Автор Сообщение

димитри37

Стаж:
4 года 5 месяцев
Сообщений:
1236

Репутация: 127

[+] [-]
Вне форума [Профиль] [ЛС]

Пустошь / The Barrens
«The terrifying legend of the Jersey Devil is alive.»-
Страна: США, Канада
Жанр: ужасы, триллер
Год выпуска: 2011
Продолжительность: 01:33:56-Перевод: Профессиональный (многоголосый, закадровый)
Оригинальная аудиодорожка: английский
Субтитры: нет
Режиссер: Даррен Линн Боусман / Darren Lynn Bousman
В ролях: Стивен Мойер, Миа Киршнер, Элли МакДональд, Шон Эшмор, Питер ДаКуна, Дэвид Кили, Эрик Кнудсен, Шамир Андерсон, Макс Топплин, Майкл Коупмен, Афина Карканис, Дж. ЛаРоуз-Описание: Герой фильма взяв семью в поход и не предполагал, что простая вылазка в лес с палатками и рыбацкими принадлежностями выльется в ужасные последствия. Очень скоро он понимает, что его семью преследует знаменитый Дьявол из Джерси - монстр, по слухам обитающий в местечке Pine Barrens, что расположено на юге Нью Джерси.-

MPAA: R - Лицам до 17 лет обязательно присутствие взрослого-Сценарий: Даррен Линн Боусман / Darren Lynn Bousman
Продюсер: Ричард Саперштейн / Richard Saperstein, Брайан Уиттен / Brian Witten, Даррен Линн Боусман / Darren Lynn Bousman, Джон М. Экерт / John M. Eckert, Армен Агаеян / Armen Aghaeian
Оператор: Джозеф Уайт / Joseph White
Композитор: Бобби Джонстон / Bobby Johnston
Мировая премьера: 28 сентября 2012
Релиз на DVD: 23 мая 2013, «Новый Диск», «New Dream media»-Качество: HDRip (Исходник неизвестен)
Контейнер: AVI
Видео: XviD, 720x400 (16:9), 1693 kbps, 23,976 fps, 0,245 bpp
Аудио №1: Russian: AC3 / 2.0 / 44 kHz / 192 kbps / 16 bit
Аудио №2: English: MP3 / 2.0 / 48 kHz / 192 kbps /-

Знаете ли Вы, что...

  • Ранняя версия этого фильма была продолжительностью всего в 81 минуту.
  • Первоначально планировалось снять этот фильм за 20 дней. Но два дня были потеряны из-за проливных дождей, и вместо этого фильм сняли за 18 дней.
  • Дьявол из Джерси был построен за три недели.
  • Съемки проходили в трех различных лесах.
  • Первоначально Даррен Линн Боусман хотел снимать фильм в настоящей сосновой пустоши в Нью-Джерси.
  • Все дневные сцены в лагере были сняты за один день.
  • В ранней версии фильма было больше кадров с дьяволом из Джерси.
  • Большинство сцен было снято за один дубль.

Media Info

General
Complete name : D:\Pustosh.2011.P.HDRip.1400.avi
Format : AVI
Format/Info : Audio Video Interleave
File size : 1.37 GiB
Duration : 1h 33mn
Overall bit rate : 2 091 Kbps
Writing application : VirtualDubMod 1.5.10.2 (build 2540/release)
Writing library : VirtualDubMod build 2540/release
Video
ID : 0
Format : MPEG-4 Visual
Format profile : Advanced Simple@L5
Format settings, BVOP : 1
Format settings, QPel : No
Format settings, GMC : No warppoints
Format settings, Matrix : Default (H.263)
Codec ID : XVID
Codec ID/Hint : XviD
Duration : 1h 33mn
Bit rate : 1 694 Kbps
Width : 720 pixels
Height : 400 pixels
Display aspect ratio : 16:9
Frame rate : 23.976 fps
Color space : YUV
Chroma subsampling : 4:2:0
Bit depth : 8 bits
Scan type : Progressive
Compression mode : Lossy
Bits/(Pixel*Frame) : 0.245
Stream size : 1.11 GiB (81%)
Writing library : XviD 1.2.1 (UTC 2008-12-04)
Audio #1
ID : 1
Format : AC-3
Format/Info : Audio Coding 3
Mode extension : CM (complete main)
Format settings, Endianness : Big
Codec ID : 2000
Duration : 1h 33mn
Bit rate mode : Constant
Bit rate : 192 Kbps
Channel(s) : 2 channels
Channel positions : Front: L R
Sampling rate : 44.1 KHz
Bit depth : 16 bits
Compression mode : Lossy
Delay relative to video : 5s 0ms
Stream size : 129 MiB (9%)
Alignment : Split accross interleaves
Interleave, duration : 42 ms (1.00 video frame)
Interleave, preload duration : 500 ms
Audio #2
ID : 2
Format : MPEG Audio
Format version : Version 1
Format profile : Layer 3
Mode : Joint stereo
Codec ID : 55
Codec ID/Hint : MP3
Duration : 1h 33mn
Bit rate mode : Constant
Bit rate : 192 Kbps
Channel(s) : 2 channels
Sampling rate : 48.0 KHz
Compression mode : Lossy
Stream size : 129 MiB (9%)
Alignment : Aligned on interleaves
Interleave, duration : 42 ms (1.00 video frame)
Interleave, preload duration : 504 ms
Writing library : LAME3.90.3

Скриншот с названием фильма

Скриншоты

Показать сообщения:    

Текущее время: Сегодня 15:37

Часовой пояс: GMT



Вы не можете начинать темы
Вы не можете отвечать на сообщения
Вы не можете редактировать свои сообщения
Вы не можете удалять свои сообщения
Вы не можете голосовать в опросах
Вы не можете прикреплять файлы к сообщениям
Вы не можете скачивать файлы