Важное объявление!
У Нас Все раздачи мультитрекерные, при нуле пиров в релизах, можете смело вставать на закачку!
 
Автор Сообщение

HUNTER

Стаж:
4 года 7 месяцев
Сообщений:
61564

Репутация: 101

[+] [-]
Вне форума [Профиль] [ЛС]

Пупендо / Pupendo
Страна: Чехия
Жанр: трагикомедия, мелодрама
Год выпуска: 2003
Продолжительность: 02:01:29
Перевод: Субтитры (перевод abbbd)
Cубтитры: русские
Оригинальная аудиодорожка: чешский
Режиссер: Ян Гржебейк / Jan Hrebejk
В ролях: Болек Поливка, Ева Голубова, Ярослав Душек, Вилма Цибулкова, Павел Лишка, Иржи Пеха, Зузана Крёнерова, Богумил Клемпл, Борис Гибнер, Соня Червена, Лукаш Баборский, Никола Пешкова, Ян Дрозда, Матей Нехватал, Яна Губинска, Радомил Углирж, Матей Рупперт, Гана Сайдлова
Описание: Восьмидесятые годы прошлого, XX века, Чехословакия. Скульптор Бедржих Мара с женой и детьми живут в самой настоящей нищете. В свое время, Бедржих Мара повздорил с режимом и остался не у дел. Он с трудом содержит свою семьи, делая копилки в форме свиней и ушастых задниц. Чтобы заработать еще хоть какие-то деньги, он обманывает страховые компании, рассказывая им о "ливнях и бурях, почти полностью уничтоживших его мастерскую". Совсем неожиданно Бедржих Мара знакомится с человеком, буквально вылезшим из мусорного бака. Эта встреча меняет всю его жизнь. У скульптора появляется шанс - снова заявить о себе. Для этого всего лишь нужно сделать для местной школы мозаику "Весенние мотивы", а если мозаика удастся, то Мара получит важный государственный заказ - памятник советскому маршалу Рыбалко. Но вот, выпив лишнего, скульптор и директор школы, решают "замуровать" в "Весенних мотивах" послание будущим поколениям, а человек из мусорного бака пишет сенсационную книгу в трех частях, которую тайными путями передает на Запад. Фильм "Пупендо" - один из самых кассовых и любимых фильмов в Чехии.
Доп. информация:


Сэмпл: http://multi-up.com/999933/
Тип релиза: HDTVRip 720p
Контейнер: MKV
Видео: H.264/AVC, 1280x720, 16:9, 25.00fps, 6500 Kbps
Аудио: Чешский, DD 5.1, 448 Kbps, 48 kHz
Формат субтитров: softsub (SRT)

MediaInfo

Код:
General
Unique ID                                : 214281363340617214097647444337578516996 (0xA13516E41C25A2C09D5026CC48D8A204)
Complete name                            : Pupendo.2003.HDTV.720p.mkv
Format                                   : Matroska
Format version                           : Version 4 / Version 2
File size                                : 6.02 GiB
Duration                                 : 2h 1mn
Overall bit rate                         : 7 089 Kbps
Movie name                               : Pupendo (2003)
Encoded date                             : UTC 2014-09-17 15:49:08
Writing application                      : mkvmerge v7.1.0 ('Good Love') 64bit built on Jul 27 2014 13:06:55
Writing library                          : libebml v1.3.0 + libmatroska v1.4.1
_STATISTICS_WRITING_APP                  : mkvmerge v7.1.0 ('Good Love') 64bit built on Jul 27 2014 13:06:55
_STATISTICS_WRITING_DATE_UTC             : 2014-09-17 15:49:08
_STATISTICS_TAGS                         : BPS DURATION NUMBER_OF_FRAMES NUMBER_OF_BYTES
DURATION                                 : 01:56:26.256000000
NUMBER_OF_FRAMES                         : 1540
NUMBER_OF_BYTES                          : 102706
Video
ID                                       : 1
Format                                   : AVC
Format/Info                              : Advanced Video Codec
Format profile                           : High@L4.1
Format settings, CABAC                   : Yes
Format settings, ReFrames                : 9 frames
Codec ID                                 : V_MPEG4/ISO/AVC
Duration                                 : 2h 1mn
Bit rate                                 : 6 500 Kbps
Width                                    : 1 280 pixels
Height                                   : 720 pixels
Display aspect ratio                     : 16:9
Frame rate mode                          : Constant
Frame rate                               : 25.000 fps
Color space                              : YUV
Chroma subsampling                       : 4:2:0
Bit depth                                : 8 bits
Scan type                                : Progressive
Bits/(Pixel*Frame)                       : 0.282
Stream size                              : 5.52 GiB (92%)
Writing library                          : x264 core 142 r2453kMod ea0ca51
Encoding settings                        : cabac=1 / ref=9 / deblock=1:-3:-3 / analyse=0x3:0x133 / me=umh / subme=10 / psy=1 / fade_compensate=0.00 / psy_rd=1.05:0.00 / mixed_ref=1 / me_range=32 / chroma_me=1 / trellis=2 / 8x8dct=1 / cqm=0 / deadzone=21,11 / fast_pskip=1 / chroma_qp_offset=-2 / threads=6 / lookahead_threads=1 / sliced_threads=0 / nr=0 / decimate=1 / interlaced=0 / bluray_compat=0 / constrained_intra=0 / fgo=0 / bframes=7 / b_pyramid=2 / b_adapt=2 / b_bias=0 / direct=3 / weightb=1 / open_gop=0 / weightp=2 / keyint=250 / keyint_min=25 / scenecut=40 / intra_refresh=0 / rc_lookahead=60 / rc=crf / mbtree=0 / crf=16.0000 / qcomp=0.65 / qpmin=0 / qpmax=69 / qpstep=4 / vbv_maxrate=50000 / vbv_bufsize=62500 / crf_max=0.0 / nal_hrd=none / filler=0 / ip_ratio=1.40 / pb_ratio=1.30 / aq=2:0.70
Language                                 : English
Default                                  : Yes
Forced                                   : No
_STATISTICS_WRITING_APP                  : mkvmerge v7.1.0 ('Good Love') 64bit built on Jul 27 2014 13:06:55
_STATISTICS_WRITING_DATE_UTC             : 2014-09-17 15:49:08
_STATISTICS_TAGS                         : BPS DURATION NUMBER_OF_FRAMES NUMBER_OF_BYTES
DURATION                                 : 02:01:28.440000000
NUMBER_OF_FRAMES                         : 182211
NUMBER_OF_BYTES                          : 6048871346
Audio
ID                                       : 2
Format                                   : AC-3
Format/Info                              : Audio Coding 3
Mode extension                           : CM (complete main)
Format settings, Endianness              : Big
Codec ID                                 : A_AC3
Duration                                 : 2h 1mn
Bit rate mode                            : Constant
Bit rate                                 : 448 Kbps
Channel(s)                               : 6 channels
Channel positions                        : Front: L C R, Side: L R, LFE
Sampling rate                            : 48.0 KHz
Bit depth                                : 16 bits
Compression mode                         : Lossy
Stream size                              : 389 MiB (6%)
Language                                 : Czech
Default                                  : Yes
Forced                                   : No
Text
ID                                       : 3
Format                                   : UTF-8
Codec ID                                 : S_TEXT/UTF8
Codec ID/Info                            : UTF-8 Plain Text
Title                                    : abbbd
Language                                 : Russian
Default                                  : Yes
Forced                                   : No

Скриншоты


_________________
Показать сообщения:    

Текущее время: Сегодня 19:53

Часовой пояс: GMT



Вы не можете начинать темы
Вы не можете отвечать на сообщения
Вы не можете редактировать свои сообщения
Вы не можете удалять свои сообщения
Вы не можете голосовать в опросах
Вы не можете прикреплять файлы к сообщениям
Вы не можете скачивать файлы
Наши партнеры: интернет магазин Ивановского трикотажа textilla.ru