Важное объявление!
У Нас Все раздачи мультитрекерные, при нуле пиров в релизах, можете смело вставать на закачку!
 
Автор Сообщение

HUNTER

Стаж:
4 года 6 месяцев
Сообщений:
60899

Репутация: 101

[+] [-]
Вне форума [Профиль] [ЛС]

Пугала / Scarecrows«They Only Want A Brain ... Yours»
Страна: США
Жанр: ужасы
Год выпуска: 1988
Продолжительность: 01:19:53
Перевод: Профессиональный (двухголосый закадровый) НТВ+
Cубтитры: нет
Оригинальная аудиодорожка: нет
Режиссер: Уильям Уэсли / William Wesley
В ролях: Тед Вернонб Майкл Дэвид Симс,Ричард Видан, Кристина Сэнборн, Виктория Кристиан, Дэвид Джеймс Кэмпбелл, Б.Дж. Тернер, Дэкс Вернон, Тони Сантори, Фил Зендерленд
Описание: Пятеро террористов нападают на базу ВВС США, и перестреляв много людей, похищают 3 миллиона долларов. К ним в заложники попадают пилот и его дочь, которые вынуждены вместе с грабителями покинуть базу на похищенном самолёте. По дороге в Мексику один из террористов, «кидая» своих подельников, одевает парашют и выпрыгивает из самолёта вместе с деньгами. Его коллеги, придя в ярость от предательства партнера, устремляются за ним в погоню. Той же ночью они настигают его на заброшенной ферме, окруженной огромным кукурузным полем, на котором стоят в особом порядке огородные пугала… Отчаянные парни даже не подозревали, в какую кровавую охоту они ввязались…
Рип в AVi от edich2 http://rutracker.org/forum/viewtopic.php?t=4798056
Сэмпл: http://rusfolder.com/41967442

Тип релиза: HDTV 1080i
Контейнер: TS
Видео: AVC/H.264, PAL, 1920х1080 (16:9), 25 fps, 5091 Kbps
Аудио: русский, MP-2, 48000 Hz, 192 Кбит/сек, 2 ch

MediaInfo

Видео
Идентификатор : 3731 (0xE93)
Идентификатор меню : 1 (0x1)
Формат : AVC
Формат/Информация : Advanced Video Codec
Профиль формата : Main@L4.0
Параметр CABAC формата : Да
Параметр ReFrames формата : 3 кадра
Идентификатор кодека : 27
Продолжительность : 1 ч. 19 м.
Битрейт : 5091 Кбит/сек
Ширина : 1920 пикселей
Высота : 1080 пикселей
Соотношение сторон : 16:9
Частота кадров : 25,000 кадров/сек
Стандарт вещания : Component
Цветовое пространство : YUV
Субдискретизация насыщенности : 4:2:0
Битовая глубина : 8 бит
Тип развёртки : Чересстрочная
Порядок развёртки : Верхнее поле первое
Бит/(Пиксели*Кадры) : 0.098
Размер потока : 2,84 Гбайт (92%)
Основные цвета : BT.709
Характеристики трансфера : BT.709
Коэффициенты матрицы : BT.709
Аудио
Идентификатор : 3732 (0xE94)
Идентификатор меню : 1 (0x1)
Формат : MPEG Audio
Версия формата : Version 1
Профиль формата : Layer 2
Идентификатор кодека : 3
Продолжительность : 1 ч. 19 м.
Вид битрейта : Постоянный
Битрейт : 192 Кбит/сек
Каналы : 2 канала
Частота : 48,0 КГц
Метод сжатия : С потерями
Размер потока : 110 Мбайт (3%)
Язык : Russian

Скриншот c названием фильма

Скриншоты


_________________
Показать сообщения:    

Текущее время: Сегодня 00:54

Часовой пояс: GMT



Вы не можете начинать темы
Вы не можете отвечать на сообщения
Вы не можете редактировать свои сообщения
Вы не можете удалять свои сообщения
Вы не можете голосовать в опросах
Вы не можете прикреплять файлы к сообщениям
Вы не можете скачивать файлы
Наши партнеры: интернет магазин Ивановского трикотажа textilla.ru