Важное объявление!
У Нас Все раздачи мультитрекерные, при нуле пиров в релизах, можете смело вставать на закачку!
 
Автор Сообщение

HUNTER

Стаж:
4 года 7 месяцев
Сообщений:
61460

Репутация: 101

[+] [-]
Вне форума [Профиль] [ЛС]

Пугала / Scarecrows
Страна: США
Жанр: ужасы
Год выпуска: 1988
Продолжительность: 01:23:23
Перевод: Профессиональный (двухголосый закадровый) НТВ+
Перевод 2: Авторский (одноголосый закадровый) В. Дохалов
Cубтитры: английские
Оригинальная аудиодорожка: английский
Режиссер: Уильям Уэсли / William Wesley
В ролях: Тед Вернон, Майкл Дэвид Симс, Ричард Видан, Кристина Сэнборн, Виктория Кристиан, Дэвид Джеймс Кэмпбелл, Б.Дж. Тернер, Дэкс Вернон, Тони Сантори, Фил Зендерленд
Описание: Пятеро террористов нападают на базу ВВС США, и перестреляв много людей, похищают 3 миллиона долларов. К ним в заложники попадают пилот и его дочь, которые вынуждены вместе с грабителями покинуть базу на похищенном самолёте. По дороге в Мексику один из террористов, «кидая» своих подельников, одевает парашют и выпрыгивает из самолёта вместе с деньгами. Его коллеги, придя в ярость от предательства партнера, устремляются за ним в погоню. Той же ночью они настигают его на заброшенной ферме, окруженной огромным кукурузным полем, на котором стоят в особом порядке огородные пугала… Отчаянные парни даже не подозревали, в какую кровавую охоту они ввязались…
Сэмпл: http://multi-up.com/1072233
Тип релиза: BDRemux 1080p
Контейнер: MKV
Видео: MPEG4 Video (H264) 1920x1080 23.976fps 33398 kbps
Аудио: Russian / AC-3, 2 ch, 48.0 KHz, 192 Kbps
Аудио 2: Russian / AC-3, 2 ch, 48.0 KHz, 224 Kbps
Аудио 3: DTS-HD MA English / 5.1 / 48 kHz / 3591 kbps / 24-bit (DTS Core: 5.1 / 48 kHz / 1 509 Kbps / 24-bit)
Формат субтитров: softsub (SRT)

MediaInfo

General
Unique ID : 236471658723467865758365152385246048557 (0xB1E6C8EC27C4A8D8BCFD116E2B32312D)
Complete name : D\Scarecrows 1988 BDRemux 1080p.mkv
Format : Matroska
Format version : Version 4 / Version 2
File size : 21.8 GiB
Duration : 1h 23mn
Overall bit rate mode : Variable
Overall bit rate : 37.4 Mbps
Encoded date : UTC 2015-10-21 05:00:35
Writing application : mkvmerge v7.4.0 ('Circles') 64bit built on Dec 12 2014 12:19:56
Writing library : libebml v1.3.0 + libmatroska v1.4.1
DURATION : 01:13:27.526000000
NUMBER_OF_FRAMES : 689
NUMBER_OF_BYTES : 21651
_STATISTICS_WRITING_APP : mkvmerge v7.4.0 ('Circles') 64bit built on Dec 12 2014 12:19:56
_STATISTICS_WRITING_DATE_UTC : 2015-10-21 05:00:35
_STATISTICS_TAGS : BPS DURATION NUMBER_OF_FRAMES NUMBER_OF_BYTES
Video
ID : 1
Format : AVC
Format/Info : Advanced Video Codec
Format profile : High@L4.1
Format settings, CABAC : Yes
Format settings, ReFrames : 4 frames
Codec ID : V_MPEG4/ISO/AVC
Duration : 1h 23mn
Bit rate mode : Constant
Nominal bit rate : 35.0 Mbps
Width : 1 920 pixels
Height : 1 080 pixels
Display aspect ratio : 16:9
Frame rate mode : Constant
Frame rate : 23.976 fps
Color space : YUV
Chroma subsampling : 4:2:0
Bit depth : 8 bits
Scan type : Progressive
Bits/(Pixel*Frame) : 0.704
Default : Yes
Forced : No
Audio #1
ID : 2
Format : AC-3
Format/Info : Audio Coding 3
Mode extension : CM (complete main)
Format settings, Endianness : Big
Codec ID : A_AC3
Duration : 1h 23mn
Bit rate mode : Constant
Bit rate : 192 Kbps
Channel(s) : 2 channels
Channel positions : Front: L R
Sampling rate : 48.0 KHz
Bit depth : 16 bits
Compression mode : Lossy
Stream size : 115 MiB (1%)
Title : DVO
Language : Russian
Default : Yes
Forced : No
Audio #2
ID : 3
Format : AC-3
Format/Info : Audio Coding 3
Mode extension : CM (complete main)
Format settings, Endianness : Big
Codec ID : A_AC3
Duration : 1h 23mn
Bit rate mode : Constant
Bit rate : 224 Kbps
Channel(s) : 2 channels
Channel positions : Front: L R
Sampling rate : 48.0 KHz
Bit depth : 16 bits
Compression mode : Lossy
Stream size : 134 MiB (1%)
Title : AVO
Language : Russian
Default : No
Forced : No
Audio #3
ID : 4
Format : DTS
Format/Info : Digital Theater Systems
Format profile : MA / Core
Mode : 16
Format settings, Endianness : Big
Codec ID : A_DTS
Duration : 1h 23mn
Bit rate mode : Variable
Bit rate : Unknown / 1 509 Kbps
Channel(s) : 6 channels
Channel positions : Front: L C R, Side: L R, LFE
Sampling rate : 48.0 KHz
Bit depth : 24 bits
Compression mode : Lossless / Lossy
Language : English
Default : No
Forced : No
Text
ID : 5
Format : UTF-8
Codec ID : S_TEXT/UTF8
Codec ID/Info : UTF-8 Plain Text
Language : English
Default : No
Forced : No

Скриншоты


_________________
Показать сообщения:    

Текущее время: Сегодня 03:25

Часовой пояс: GMT



Вы не можете начинать темы
Вы не можете отвечать на сообщения
Вы не можете редактировать свои сообщения
Вы не можете удалять свои сообщения
Вы не можете голосовать в опросах
Вы не можете прикреплять файлы к сообщениям
Вы не можете скачивать файлы
Наши партнеры: интернет магазин Ивановского трикотажа textilla.ru