Ивановский Торрент трекер
Яндекс.Погода
 

[Цитировать]
HUNTER

Психотерапия тяжёлых соматических расстройств и дифференциальная психосоматика.
Психотерапия при онкологии.

Страна: Россия
Тематика: Клиническая психотерапия, онкопсихология
Тип раздаваемого материала: Видеоурок
Год выпуска: 2007
Язык: Русский
Перевод: Не требуется
Описание: Вашему вниманию представляется видеозапись лекций по клинической психологии и психотерапии тяжёлых психосоматических расстройств на примере онкологических заболеваний.
семинар проводят Ивашкина М. Г., Есаулов В. И.
Содержимое раздачи:
  • диск № 1: Страхи и мифы онкологических заболеваний. Исследование личности онкологических больных. Психокоррекционное сопровождение онкологических больных.Техника «субъективный смысл болезни». Психодраматическая расстановка. Демонстрация работы
  • диск № 2: Программа оздоровления Карла и Стефани Саймонтон. Техника визуализации излечения болезни. Демонстрация визуализации. Структура техники. Скульптурная композиция «болезнь и здоровье». Когнитивная техника анализа границ. Задание «Работа с обидами». Техника работы с обидами. Техника «преимущество болезни». Анализ стрессовых ситуаций, предшествовавших болезни. Техника дифференциации.
  • диск № 3: Рисуночная техника «жизнь и смерть». Диалог со смертью при помощи игрушек. Процедура выполнения техники. Анализ работы. Ответы на вопросы. Техника «встреча с мудростью». Техника «мудрецы». Техника «анализ жизненных перспектив». Работа со страхом смерти.
  • диск № 4: Влияние тяжелой хронической болезни на психику пациента. Типы личностной адаптации заболевших мужчин и женщин. Особенности контакта с психосоматическими пациентами. Диагностическая методика "солнышко".
  • диск № 5: Типы отношения пациента к болезни. Техника "Диалог с персональным ангелом". Техника: "Ода жизни".Типы реагирования на болезнь (по Липовски). Демонстрация работы с болью. Внутренняя картина болезни. Позитивное намерение симптома. Письмо симптому. «Признание в любви к себе».
    Качество: DVD5
    Формат: MPG
    Видео кодек: MPEG2
    Аудио кодек: MP2
    Видео: MPEG2; 720x576; 4:3; 2740 kbps; 25 fps
    Аудио: MP2; 224 kbps; 48,0 kHz; 2 ch

Подробная характеристика мультимедиа

Формат : MPEG-PS
Размер файла : 1024 Мбайт
Продолжительность : 47 м.
Режим общего битрейта : Переменный
Общий поток : 3024 Кбит/сек
Видео
Идентификатор : 224 (0xE0)
Формат : MPEG Video
Версия формата : Version 2
Профиль формата : Main@Main
Параметр BVOP формата : Да
Параметр матрицы формата : По умолчанию
Параметр GOP формата : M=3, N=12
Структура изображения : Frame
Продолжительность : 47 м.
Вид битрейта : Переменный
Битрейт : 2740 Кбит/сек
Максимальный битрейт : 2884 Кбит/сек
Ширина : 720 пикселей
Высота : 576 пикселей
Соотношение сторон : 4:3
Частота кадров : 25,000 кадров/сек
Стандарт вещания : PAL
Цветовое пространство : YUV
Субдискретизация насыщенности : 4:2:0
Битовая глубина : 8 бит
Тип развёртки : Чересстрочная
Порядок развёртки : Нижнее поле первое
Метод сжатия : С потерями
Бит/(Пиксели*Кадры) : 0.264
Временной код первого кадра : 00:00:00:00
Оригинал временного кода : Group of pictures header
GOP, открыто/закрыто : Открыто
GOP, открыто/закрыто на первом кадре : Закрыто
Размер потока : 928 Мбайт (91%)
Аудио
Идентификатор : 192 (0xC0)
Формат : MPEG Audio
Версия формата : Version 1
Профиль формата : Layer 2
Продолжительность : 47 м.
Вид битрейта : Постоянный
Битрейт : 224 Кбит/сек
Каналы : 2 канала
Частота : 48,0 КГц
Метод сжатия : С потерями
Размер потока : 75,9 Мбайт (7%)

Скриншоты

Показать сообщения:    

Текущее время: 18-Окт 01:03

Часовой пояс: UTC - 1


Вы не можете начинать темы
Вы не можете отвечать на сообщения
Вы не можете редактировать свои сообщения
Вы не можете удалять свои сообщения
Вы не можете голосовать в опросах
Вы не можете прикреплять файлы к сообщениям
Вы не можете скачивать файлы

!ВНИМАНИЕ!
Сайт не предоставляет электронные версии произведений, а занимается лишь коллекционированием и каталогизацией ссылок, присылаемых и публикуемых на форуме нашими читателями. Если вы являетесь правообладателем какого-либо представленного материала и не желаете, чтобы ссылка на него находилась в нашем каталоге, свяжитесь с нами, и мы незамедлительно удалим ее. Файлы для обмена на трекере предоставлены пользователями сайта, и администрация не несет ответственности за их содержание. Просьба не заливать файлы, защищенные авторскими правами, а также файлы нелегального содержания!