Психология процветания. Секреты богатых людей (Андрей Ушков)[2010, Психология, SATRip] :: Ивановский Торрент трекер
Важное объявление!
У Нас Все раздачи мультитрекерные, при нуле пиров в релизах, можете смело вставать на закачку!
 
Автор Сообщение

HUNTER

Стаж:
4 года 11 месяцев
Сообщений:
66045

Репутация: 101

[+] [-]
Вне форума [Профиль] [ЛС]

Психология процветания. Секреты богатых людей-

Год выпуска: 2010
Страна: Россия
Сайт производителя: отсутствуeт
Тематика: Психология
Тип материала: Обучающее видео-Продолжительность: 03:46:12
Автор: Андрей Ушков-Язык: Русский
Субтитры: отсутствуют-Описание: Богатство начинается с головы, с изменения своей повседневной психологии на психологию успешного человека. Можно ли изменить свою психологию? Можно!Вот скажите, о чём Вы мечтаете? Вы желаете иметь больше денег? Вы хотите делать то, что вам нравится и не вскакивать в 6 утра по будильнику на работу?
А все дело в вашей психологии. Ваша голова порождает эти картины, но ваш дух, ваше тело и ваш интеллект не в состоянии вместить в себя всю эту красоту! Так что же делать, спросите вы? Все просто! Учиться. Учиться изменять себя в сторону уверенного, активного, успешного человека. Учиться управлять этой удивительной ЭНЕРГИЕЙ под названием ДЕНЬГИ! И все начинается с головы, с изменения своей повседневной психологии на психологию успешного человека, с изучения основ финансовой грамоты и практики.
Чтобы достичь вершины успеха, нужно знать важные секреты, которые управляют процветанием человека и определяют, достигните ли Вы своих целей или нет. Данный тренинг создан только с одной целью — чтобы Вам было легче идти по дороге — богатство. Чтобы Вы добрались до пункта назначения как можно быстрее и с наименьшими потерями.
-Качество: SATRip
Формат: WMV
Видео кодек: Windows Media
Аудио кодек: WMA
Видео: 320x240 (4:3), 25.000 fps, WMV3, ~252 Kbps avg, 0.131 bit/pixel
Аудио: 44,1 kHz, WMA, 1 ch (mono), 32,0 kbps avg-

Доп. информация

Данный тренинг создан для тех, кто ищет пути формирования своего финансового благополучия. Кто мечтает о большем, чем он сейчас имеет и кто готов действовать. Но таких людей не много. Не более 10%.
В результате тренинга Вы узнаете и поймете:
• Законы, управляющие успехом во многих областях жизни человека.
• Научитесь достигать наивысших результатов в вопросах владения финансами.
• Вы научитесь ставить и достигать финансовые цели, используя принципы целеполагания.
• Вы узнаете, почему большинство людей никак не могут разбогатеть, а для кого-то – это норма жизни.
• Вы поймете, почему за успехом бесполезно гоняться, а нужно стремиться стать человеком, притягивающим успех.
• Изучите и трансформируете свои заблуждения в мощные позитивные импульсы.
• Инструменты формирования психологии процветания.
• Исследуете ограничивающие убеждения, которые тормозят вас на пути к финансовой независимости.
• Получите в руки работающие модели, как переформатировать свое сознание на достижение цели.
• На ярких примерах поймете, как отличить истинные цели от ложных.
• Обретете уверенность и Веру в том, что все в ваших руках.
• Научитесь создавать Финансовое Видение своей Жизни.

MediaInfo

Код: copyText_writeLink('this.parentNode.parentNode.nextSibling.nextSibling'); General
Complete name : E:\Обучение\psihologija_procvetanija\Урок_1.wmv
Format : Windows Media
File size : 52.7 MiB
Duration : 25mn 27s
Overall bit rate mode : Variable
Overall bit rate : 289 Kbps
Maximum Overall bit rate : 466 Kbps
Encoded date : UTC 2007-03-03 22:13:19.452
SfOriginalFPS : 250000
Video
ID : 2
Format : VC-1
Format profile : MP@LL
Codec ID : WMV3
Codec ID/Info : Windows Media Video 9
Codec ID/Hint : WMV3
Description of the codec : Windows Media Video 9
Duration : 25mn 27s
Bit rate mode : Variable
Bit rate : 252 Kbps
Width : 320 pixels
Height : 240 pixels
Display aspect ratio : 4:3
Frame rate : 25.000 fps
Bit depth : 8 bits
Scan type : Progressive
Compression mode : Lossy
Bits/(Pixel*Frame) : 0.131
Stream size : 45.8 MiB (87%)
Audio
ID : 1
Format : WMA
Format version : Version 2
Codec ID : 161
Codec ID/Info : Windows Media Audio
Description of the codec : Windows Media Audio 9.1 - 32 kbps, 44 kHz, mono (A/V) 1-pass CBR
Duration : 25mn 27s
Bit rate mode : Constant
Bit rate : 32.0 Kbps
Channel(s) : 1 channel
Sampling rate : 44.1 KHz
Bit depth : 16 bits
Stream size : 5.84 MiB (11%)
Menu
- -

_________________
Показать сообщения:    

Текущее время: Сегодня 17:19

Часовой пояс: GMT



Вы не можете начинать темы
Вы не можете отвечать на сообщения
Вы не можете редактировать свои сообщения
Вы не можете удалять свои сообщения
Вы не можете голосовать в опросах
Вы не можете прикреплять файлы к сообщениям
Вы не можете скачивать файлы