Важное объявление!
У Нас Все раздачи мультитрекерные, при нуле пиров в релизах, можете смело вставать на закачку!
Статистика раздачи
Размер:     |    Зарегистрирован:     |    Скачан:     |   
Нет
 
     
 
 
Автор Сообщение

димитри37

Стаж:
4 года 4 месяца
Сообщений:
1236

Репутация: 127

[+] [-]
Вне форума [Профиль] [ЛС]

Псевдоним «Албанец»
Год выпуска: 2006
Производство: Россия, Фабула
Жанр: боевик
Продолжительность: 8 ~ 00:44:40
Субтитры: нет
Режиссёр: Рауф Кубаев
В ролях: Александр Дедюшко, Светлана Ходченкова, Владимир Стеклов, Александр Песков, Вадим Андреев, Габриэлла Мариани, Татьяна Лютаева, Марк Рудинштейн, Виталий Альшанский, Владимир Малюгин...
Описание: «Спец» по ликвидациям, работавший на секретные службы в постсоветскую эпоху, решает выйти в отставку. Однако бывшие сослуживцы, взявшиеся за полукриминальный бизнес, не оставляют его в покое, ведь для них его имя служит своего рода, «знаком качества».
И вот реалии жизни складываются не в пользу главного героя — теперь он сам становится мишенью. Албанец понимает, что желание — вернуться к мирной жизни — будет не так просто осуществить…

Качество: DVDRip (2 х DVD9 R5)
Формат: AVI
Видео: 704x432 (16:10), 25.000 fps, XViD ~ 2000 kbps avg, 0.263 bit/pixel
Аудио: 48 kHz, АС3 2 ch, 192 kbps, русский

MediaInfo

Общее
Полное имя : Psevdonim.Albanets.2006.O.DVDRip_[Youtracker]_by_avproh1.avi
Формат : AVI
Формат/Информация : Audio Video Interleave
Размер файла : 697 Мбайт
Продолжительность : 44 м.
Общий поток : 2202 Кбит/сек
Программа кодирования : VirtualDubMod 1.5.10.3 | www.virtualdub-fr.org || (build 2550/release)
Библиотека кодирования : VirtualDubMod build 2550/release
Видео
Идентификатор : 0
Формат : MPEG-4 Visual
Профиль формата : Advanced Simple@L5
Параметр BVOP формата : 1
Параметр QPel формата : Нет
Параметр GMC формата : Без точки перехода
Параметр матрицы формата : Выборочная
Идентификатор кодека : XVID
Идентификатор кодека/Подсказка : XviD
Продолжительность : 44 м.
Битрейт : 2000 Кбит/сек
Ширина : 704 пикселя
Высота : 432 пикселя
Соотношение сторон : 16:10
Частота кадров : 25,000 кадров/сек
Цветовое пространство : YUV
Субдискретизация насыщенности : 4:2:0
Битовая глубина : 8 бит
Тип развёртки : Прогрессивная
Метод сжатия : С потерями
Бит/(Пиксели*Кадры) : 0.263
Размер потока : 633 Мбайт (91%)
Библиотека кодирования : XviD 65
Аудио
Идентификатор : 1
Формат : AC-3
Формат/Информация : Audio Coding 3
Расширение режима : CM (complete main)
Параметр Endianness формата : Big
Идентификатор кодека : 2000
Продолжительность : 44 м.
Вид битрейта : Постоянный
Битрейт : 192 Кбит/сек
Каналы : 2 канала
Расположение каналов : Front: L R
Частота : 48,0 КГц
Битовая глубина : 16 бит
Метод сжатия : С потерями
Размер потока : 60,8 Мбайт (9%)
Выравнивание : Разделение по промежуткам
Продолжительность промежутка : 40 мс. (1,00 видеокадр)
Время предзагрузки промежутка : 500 мс.

Скриншоты:

Сравнения:

http://alt.rutor.org/torrent/8815/
http://screenshotcomparison.com/comparison/33481 - перекроп, квадраты, четкость
http://alt.rutor.org/torrent/81587/
http://screenshotcomparison.com/comparison/33467 - перекроп, четкость

Источник:

[url=]http://www.rutor.org/torrent/295124/psevdonim-«albanec»-01-08-iz-08-2006-dvdrip-ot-youtracker[/url]
Показать сообщения:    

Текущее время: Сегодня 22:39

Часовой пояс: GMT



Вы не можете начинать темы
Вы не можете отвечать на сообщения
Вы не можете редактировать свои сообщения
Вы не можете удалять свои сообщения
Вы не можете голосовать в опросах
Вы не можете прикреплять файлы к сообщениям
Вы не можете скачивать файлы