Ивановский Торрент трекер
Яндекс.Погода
 

[Цитировать]
HUNTER

Прощай, Колумбус / Goodbye, Columbus
Страна: США
Студия: Paramount Pictures and Willow Tree
Жанр: Драма, мелодрама
Год выпуска: 1969
Продолжительность: 01:36:35
Перевод: Профессиональный (двухголосый закадровый)
Cубтитры: нет
Оригинальная аудиодорожка: английский
Режиссер: Ларри Пирс / Larry Peerce
В ролях: Ричард Бенджамин, Эли МакГроу, Джек Клагмен, Нэн Мартин, Майкл Мейерс, Лори Шелл, Монро Арнольд, Кэй Каммингс, Сильви Штраус, Ройс Уоллес
Описание: В фильме рассказывается о различных жизненных проблемах второго и третьего поколения ассимилировавшихся американских евреев. Она — типичная еврейско-американская принцесса, её родители, сами добившиеся благосостояния тяжелым трудом, ни в чем ей не отказывают, поскольку она их никогда не разочаровывала. Он — более самостоятельный и независимый от своих родителей и вовсе не уверенный в том, что хочет чего-то добиваться.
Доп. информация: Фильм записан с канала Paramount Channel HD по просьбе amplified
Сэмпл: http://multi-up.com/970415, http://rusfolder.com/40577458
Тип релиза: HDTV 1080i
Контейнер: TS
Видео: 4708 Кбит/сек, MPEG4 Video (H264) 1920x1080 (16:9) 25fps
Аудио: MPEG Audio 48000Hz stereo Layer 2 192kbps RUS
Аудио: MPEG Audio 48000Hz stereo Layer 2 192kbps ENG
MediaInfo
Общее
Идентификатор : 1 (0x1)
Полное имя : D:\Прощай, Колумбус (Goodbye, Columbus) [1969] (RUS-ENG) Paramount HD.ts
Формат : MPEG-TS
Размер файла : 3,62 Гбайт
Продолжительность : 1 ч. 36 м.
Режим общего битрейта : Переменный
Общий поток : 5361 Кбит/сек
Максимальный общий битрейт : 35,5 Мбит/сек
Видео
Идентификатор : 4113 (0x1011)
Идентификатор меню : 1 (0x1)
Формат : AVC
Формат/Информация : Advanced Video Codec
Профиль формата : High@L4.0
Параметр CABAC формата : Да
Параметр ReFrames формата : 4 кадра
Идентификатор кодека : 27
Продолжительность : 1 ч. 36 м.
Вид битрейта : Переменный
Битрейт : 4708 Кбит/сек
Максимальный битрейт : 5000 Кбит/сек
Ширина : 1920 пикселей
Высота : 1080 пикселей
Соотношение сторон : 16:9
Режим частоты кадров : Переменный
Цветовое пространство : YUV
Субдискретизация насыщенности : 4:2:0
Битовая глубина : 8 бит
Тип развёртки : MBAFF
Размер потока : 3,18 Гбайт (88%)
Аудио #1
Идентификатор : 4352 (0x1100)
Идентификатор меню : 1 (0x1)
Формат : MPEG Audio
Версия формата : Version 1
Профиль формата : Layer 2
Идентификатор кодека : 4
Продолжительность : 1 ч. 36 м.
Вид битрейта : Постоянный
Битрейт : 192 Кбит/сек
Каналы : 2 канала
Частота : 48,0 КГц
Метод сжатия : С потерями
Размер потока : 133 Мбайт (4%)
Язык : Russian
Аудио #2
Идентификатор : 4353 (0x1101)
Идентификатор меню : 1 (0x1)
Формат : MPEG Audio
Версия формата : Version 1
Профиль формата : Layer 2
Идентификатор кодека : 4
Продолжительность : 1 ч. 36 м.
Вид битрейта : Постоянный
Битрейт : 192 Кбит/сек
Каналы : 2 канала
Частота : 48,0 КГц
Метод сжатия : С потерями
Размер потока : 133 Мбайт (4%)
Язык : English
Скриншоты


Показать сообщения:    

Текущее время: 11-Дек 13:13

Часовой пояс: UTC ± 0


Вы не можете начинать темы
Вы не можете отвечать на сообщения
Вы не можете редактировать свои сообщения
Вы не можете удалять свои сообщения
Вы не можете голосовать в опросах
Вы не можете прикреплять файлы к сообщениям
Вы не можете скачивать файлы

!ВНИМАНИЕ!
Сайт не предоставляет электронные версии произведений, а занимается лишь коллекционированием и каталогизацией ссылок, присылаемых и публикуемых на форуме нашими читателями. Если вы являетесь правообладателем какого-либо представленного материала и не желаете, чтобы ссылка на него находилась в нашем каталоге, свяжитесь с нами, и мы незамедлительно удалим ее. Файлы для обмена на трекере предоставлены пользователями сайта, и администрация не несет ответственности за их содержание. Просьба не заливать файлы, защищенные авторскими правами, а также файлы нелегального содержания!