[Цитировать]
димитри37

Прощай, блондинка! / Бай, бай, блонди! / Bye Bye Blondie
Страна: Франция
Жанр: драма, мелодрама, ЛГБТ
Год выпуска: 2011
Продолжительность: 01:34:00
Перевод: Профессиональный (многоголосый закадровый) BaibaKo
Cубтитры: нет
Оригинальная аудиодорожка: нет
Режиссер: Виржини Депант / Virginie Despentes
В ролях: Эммануэль Беар, Беатрис Даль, Стефани Соколински, Клара Понсо, Паскаль Греггори
Описание: Глория и Фрэнсис встретились в 80х. Они любили друг друга, как любят в 16: секс, наркотики, рок-н-ролл.
Позже жизнь их разделила, и они пошли по совершенно разным дорогам. Спустя 20 лет Фрэнсис возвращается, чтобы найти Глорию…

Сэмпл: http://multi-up.com/888449
Качество видео: DVDRip
Формат видео: AVI
Видео: Xvid 704x384 25.00fps 908Kbps 0.134bits/pixel
Аудио: MPEG Audio Layer 3 48000Hz stereo 192Kbps

MediaInfo

General
Complete name : D:\TORRENTS\Бай, Бай, Блонди.avi
Format : AVI
Format/Info : Audio Video Interleave
File size : 746 MiB
Duration : 1h 34mn
Overall bit rate : 1 109 Kbps
Video
ID : 0
Format : MPEG-4 Visual
Format profile : Simple@L3
Format settings, BVOP : No
Format settings, QPel : No
Format settings, GMC : No warppoints
Format settings, Matrix : Default (H.263)
Codec ID : XVID
Codec ID/Hint : XviD
Duration : 1h 34mn
Bit rate : 908 Kbps
Width : 704 pixels
Height : 384 pixels
Display aspect ratio : 1.85:1
Frame rate : 25.000 fps
Color space : YUV
Chroma subsampling : 4:2:0
Bit depth : 8 bits
Scan type : Progressive
Compression mode : Lossy
Bits/(Pixel*Frame) : 0.134
Stream size : 611 MiB (82%)
Writing library : XviD 1.1.2 (UTC 2006-11-01)
Audio
ID : 1
Format : MPEG Audio
Format version : Version 1
Format profile : Layer 3
Mode : Joint stereo
Codec ID : 55
Codec ID/Hint : MP3
Duration : 1h 34mn
Source duration : 1h 34mn
Bit rate mode : Constant
Bit rate : 192 Kbps
Channel(s) : 2 channels
Sampling rate : 48.0 KHz
Compression mode : Lossy
Stream size : 129 MiB (17%)
Alignment : Aligned on interleaves
Interleave, duration : 40 ms (1.00 video frame)
Writing library : LAME3.99.3

Скриншот c названием фильма

Скриншоты

-Источник:
0 человек читают эту тему: 0 пользователей, 0 скрытых пользователей, 0 гостей

Показать сообщения:    

Текущее время: 22-Авг 15:49

Часовой пояс: UTC - 1


Вы не можете начинать темы
Вы не можете отвечать на сообщения
Вы не можете редактировать свои сообщения
Вы не можете удалять свои сообщения
Вы не можете голосовать в опросах
Вы не можете прикреплять файлы к сообщениям
Вы не можете скачивать файлы

!ВНИМАНИЕ!
Сайт не предоставляет электронные версии произведений, а занимается лишь коллекционированием и каталогизацией ссылок, присылаемых и публикуемых на форуме нашими читателями. Если вы являетесь правообладателем какого-либо представленного материала и не желаете, чтобы ссылка на него находилась в нашем каталоге, свяжитесь с нами, и мы незамедлительно удалим ее. Файлы для обмена на трекере предоставлены пользователями сайта, и администрация не несет ответственности за их содержание. Просьба не заливать файлы, защищенные авторскими правами, а также файлы нелегального содержания!