Важное объявление!
У Нас Все раздачи мультитрекерные, при нуле пиров в релизах, можете смело вставать на закачку!
Статистика раздачи
Размер:     |    Зарегистрирован:     |    Скачан:     |   
Нет
 
     
 
 
Автор Сообщение

HUNTER

Стаж:
5 лет
Сообщений:
67979

Репутация: 101

[+] [-]
Вне форума [Профиль] [ЛС]

Прохоровка. Укрощение ТИГРА-
Год выпуска: 2003
Страна: Россия
Жанр: документальный
Продолжительность: 00:26:05
Перевод: Не требуется
Русские субтитры: нет
Режиссер: Иван Мазепа
Описание: 60 лет назад, 12 июля 1943 г., на Курской дуге у станции Прохоровка в одном бою сошлось невиданное количество танков. Вермахт впервые применил новейшую бронетанковую технику: ”Тигры”, ”Пантеры” и ”Фердинанды”. Здесь, на Прохоровском поле решалась судьба войны, и советское военное руководство приняло решение - встретить бронетанковые дивизии СС лобовым танковым контрударом. В самый критический момент боя, спасая своего командира, сержант Александр Николаев направил горящий «Т-34» навстречу ”Тифу”. Подвиг сержанта Николаева в этом бою повторили еще 20 советских экипажей. Именно после этого боя Вермахт навсегда утратил военную инициативу в Великой отечественной войне.
качество: DVB by BS666 Сэмпл
формат: TS
Видео: MPEG2 | 720x576 (4:3) | 25.000 fps | 3383 kbps | 0.327 bits/pix
Аудио: MP2 | 48 KHz | 2.0 (Stereo) | 192 kbps

MediaInfo

Общее
Идентификатор : 1 (0x1)
Полное имя : E:\REC\Прохоровка. Укрощение Тигра_new.ts
Формат : MPEG-TS
Размер файла : 702 Мбайт
Продолжительность : 26 м.
Режим общего битрейта : Переменный
Общий поток : 3763 Кбит/сек
Максимальный общий битрейт : 35,5 Мбит/сек
Видео
Идентификатор : 4113 (0x1011)
Идентификатор меню : 1 (0x1)
Формат : MPEG Video
Версия формата : Version 2
Профиль формата : Main@Main
Параметр BVOP формата : Да
Параметр матрицы формата : Выборочная
Параметр GOP формата : M=3, N=12
Идентификатор кодека : 2
Продолжительность : 26 м.
Вид битрейта : Переменный
Битрейт : 3383 Кбит/сек
Максимальный битрейт : 15,0 Мбит/сек
Ширина : 720 пикселей
Высота : 576 пикселей
Соотношение сторон : 4:3
Описание активного формата : Full frame 16:9 image
Частота кадров : 25,000 кадров/сек
Стандарт вещания : PAL
Цветовое пространство : YUV
Субдискретизация насыщенности : 4:2:0
Битовая глубина : 8 бит
Тип развёртки : Чересстрочная
Порядок развёртки : Верхнее поле первое
Метод сжатия : С потерями
Бит/(Пиксели*Кадры) : 0.326
Размер потока : 631 Мбайт (90%)
Аудио
Идентификатор : 4352 (0x1100)
Идентификатор меню : 1 (0x1)
Формат : MPEG Audio
Версия формата : Version 1
Профиль формата : Layer 2
Идентификатор кодека : 4
Продолжительность : 26 м.
Вид битрейта : Постоянный
Битрейт : 192 Кбит/сек
Каналы : 2 канала
Частота : 48,0 КГц
Метод сжатия : С потерями
Размер потока : 35,8 Мбайт (5%)
Язык : Russian

Скриншоты


_________________
Показать сообщения:    

Текущее время: Сегодня 04:35

Часовой пояс: GMT



Вы не можете начинать темы
Вы не можете отвечать на сообщения
Вы не можете редактировать свои сообщения
Вы не можете удалять свои сообщения
Вы не можете голосовать в опросах
Вы не можете прикреплять файлы к сообщениям
Вы не можете скачивать файлы