Ивановский Торрент трекер
Яндекс.Погода
 

[Цитировать]
димитри37


Протоколы войны
Год выпуска: 2013
Страна: Россия
Жанр: документальный
Продолжительность: 00:52:18
Перевод: Не требуется
Русские субтитры: нет
Режиссеры: Сергей Швыдкой, Людмила Снигирева
Описание: В основе фильма – уникальные интервью с бойцами, записанные во время Великой Отечественной войны. Член-корреспондент АН СССР Исаак Минц и его коллеги, рискуя жизнью, вели протоколы прямо в окопах и блиндажах. И взяли интервью у семнадцати тысячи человек. После войны весь архив было приказано уничтожить. Понимая его ценность, сотрудники Института российской истории РАН тайно сохранили материалы. Они были обнаружены только в 2012-м году. Самые неожиданные, яркие и показательные истории из этого уникального архива озвучивают известные артисты. В фильме принимают участие немногие дожившие до наших дней ветераны, протоколы бесед с которыми сохранились в архиве.
В фильме принимают участие: Сергей Шакуров, Николай Чиндяйкин, Евгений Цыганов, Екатерина Климова, Светлана Иванова, Алексей Литвиненко, Никита Ефремов, сотрудники института Российской истории РАН, ветераны Великой Отечественной войны.
Продюсеры: Данила Шарапов, Олег Вольнов
Автор сценария: Екатерина Алябьева
качество: SATRip
формат: AVI
Видео: 720x400 (1.80:1), 25 fps, XviD MPEG-4 ~1744 kbps avg, 0.24 bit/pixel
Аудио: 48 kHz, MPEG Layer 3, 2 ch, ~128.00 kbps avg

MediaInfo

Формат : AVI
Формат/Информация : Audio Video Interleave
Размер файла : 704 Мбайт
Продолжительность : 52 м.
Общий поток : 1883 Кбит/сек
Библиотека кодирования : VirtualDub build 30009/release
Видео
Идентификатор : 0
Формат : MPEG-4 Visual
Профиль формата : Advanced Simple@L5
Параметр BVOP формата : 2
Параметр QPel формата : Нет
Параметр GMC формата : Без точки перехода
Параметр матрицы формата : Default (MPEG)
Режим смешивания : Сжатый битовый поток
Идентификатор кодека : XVID
Идентификатор кодека/Подсказка : XviD
Продолжительность : 52 м.
Битрейт : 1745 Кбит/сек
Ширина : 720 пикселей
Высота : 400 пикселей
Соотношение сторон : 16:9
Частота кадров : 25,000 кадров/сек
Цветовое пространство : YUV
Субдискретизация насыщенности : 4:2:0
Битовая глубина : 8 бит
Тип развёртки : Прогрессивная
Метод сжатия : С потерями
Бит/(Пиксели*Кадры) : 0.242
Размер потока : 653 Мбайт (93%)
Библиотека кодирования : XviD 64
Аудио
Идентификатор : 1
Формат : MPEG Audio
Версия формата : Version 1
Профиль формата : Layer 3
Режим : Joint stereo
Расширение режима : MS Stereo
Идентификатор кодека : 55
Идентификатор кодека/Подсказка : MP3
Продолжительность : 52 м.
Вид битрейта : Постоянный
Битрейт : 128 Кбит/сек
Каналы : 2 канала
Частота : 48,0 КГц
Метод сжатия : С потерями
Размер потока : 47,9 Мбайт (7%)
Выравнивание : Разделение по промежуткам
Продолжительность промежутка : 40 мс. (1,00 видеокадр)
Время предзагрузки промежутка : 500 мс.

Скриншоты

-


Показать сообщения:    

Текущее время: 18-Дек 14:52

Часовой пояс: UTC ± 0


Вы не можете начинать темы
Вы не можете отвечать на сообщения
Вы не можете редактировать свои сообщения
Вы не можете удалять свои сообщения
Вы не можете голосовать в опросах
Вы не можете прикреплять файлы к сообщениям
Вы не можете скачивать файлы

!ВНИМАНИЕ!
Сайт не предоставляет электронные версии произведений, а занимается лишь коллекционированием и каталогизацией ссылок, присылаемых и публикуемых на форуме нашими читателями. Если вы являетесь правообладателем какого-либо представленного материала и не желаете, чтобы ссылка на него находилась в нашем каталоге, свяжитесь с нами, и мы незамедлительно удалим ее. Файлы для обмена на трекере предоставлены пользователями сайта, и администрация не несет ответственности за их содержание. Просьба не заливать файлы, защищенные авторскими правами, а также файлы нелегального содержания!