Важное объявление!
У Нас Все раздачи мультитрекерные, при нуле пиров в релизах, можете смело вставать на закачку!
 
Автор Сообщение

HUNTER

Стаж:
4 года 10 месяцев
Сообщений:
65548

Репутация: 101

[+] [-]
Вне форума [Профиль] [ЛС]

Противоборство / Адский лагерь / Cила сопротивления / Opposing Force / Hell Camp / Hellcamp
Страна: США
Студия: Eros International Film Productions
Жанр: боевик, exploitation
Год выпуска: 1986
Продолжительность: 01:39:39
Перевод: Одноголосый закадровый Переводчик не опознан
Cубтитры: нет
Оригинальная аудиодорожка: английский
Режиссер: Эрик Карсон / Eric Karson
В ролях: Том Скерритт, Лиза Эйчхорн, Энтони Зерб, Ричард Раундтри
Описание: Группа элитных солдат, в которую входит даже одна женщина, предназначена выполнить тренировочное задание крайней степени сложности. Группа на парашютах высаживается на отдаленном острове, где им необходимо добраться до указанной на карте зоны безопасности, прежде чем противник сможет захватить их в плен. Но с самого начала миссия развивается не так, как ожидали. И вскоре тренировка превращается в настоящее кровавое месиво…
Предтеча картины «Похитители разума» (2002). Это всего один из четырех полнометражных фильмов режиссера Эрика Карсона, наряду с картинами «Октагон» (1980) с Чаком Норрисом, «Черный орел» (1988) с Жаном-Клодом Ван Даммом и «Город ангелов» (1990) с Оливье Грюнером.
Доп. информация: Диск из собственной коллекции.
Сэмпл: http://sendfile.su/1126653
Тип релиза: DVD5 (Custom)
Контейнер: DVD-Video
Видео: NTSC 16:9 (720x480) VBR Auto Pan&Scan
Аудио: Russian (Dolby AC3, 192 Kbps, 2 ch)
Аудио 2: English (Dolby AC3, 192 Kbps, 2 ch)

DVDInfo

Size: 4.25 Gb ( 4 459 038 KBytes ) - DVD-5
Enabled regions: 1, 2, 3, 4, 5, 6, 7, 8
VTS_01 :
Play Length: 01:39:39
Video: NTSC 16:9 (720x480) VBR, Auto Pan&Scan
Audio:
Russian (Dolby AC3, 2 ch)
English (Dolby AC3, 2 ch)
VTS_02 :
Play Length: 00:00:10
Video: NTSC 16:9 (720x480) VBR, Auto Letterboxed
VTS_03 :
Play Length: 00:00:10
Video: NTSC 16:9 (720x480) VBR, Auto Letterboxed
Audio:
Not specified (Dolby AC3, 2 ch)
Menu Video:
NTSC 16:9 (720x480) VBR
Auto Letterboxed
Menu English Language Unit :
Root Menu

MediaInfo

General
Complete name : F:\Opposing Force_1986\VIDEO_TS\VTS_01_1.VOB
Format : MPEG-PS
File size : 1 024 MiB
Duration : 23mn 29s
Overall bit rate mode : Variable
Overall bit rate : 6 094 Kbps
Video
ID : 224 (0xE0)
Format : MPEG Video
Format version : Version 2
Format profile : Main@Main
Format settings, BVOP : Yes
Format settings, Matrix : Custom
Duration : 23mn 29s
Bit rate mode : Variable
Bit rate : 5 600 Kbps
Width : 720 pixels
Height : 480 pixels
Display aspect ratio : 16:9
Frame rate : 29.970 fps
Standard : NTSC
Color space : YUV
Chroma subsampling : 4:2:0
Bit depth : 8 bits
Compression mode : Lossy
Bits/(Pixel*Frame) : 0.541
Stream size : 939 MiB (92%)
Audio #1
ID : 189 (0xBD)-128 (0x80)
Format : AC-3
Format/Info : Audio Coding 3
Mode extension : CM (complete main)
Format settings, Endianness : Big
Muxing mode : DVD-Video
Duration : 23mn 29s
Bit rate mode : Constant
Bit rate : 192 Kbps
Channel(s) : 2 channels
Channel positions : Front: L R
Sampling rate : 48.0 KHz
Bit depth : 16 bits
Compression mode : Lossy
Delay relative to video : -66ms
Stream size : 32.3 MiB (3%)
Audio #2
ID : 189 (0xBD)-129 (0x81)
Format : AC-3
Format/Info : Audio Coding 3
Mode extension : CM (complete main)
Format settings, Endianness : Big
Muxing mode : DVD-Video
Duration : 23mn 29s
Bit rate mode : Constant
Bit rate : 192 Kbps
Channel(s) : 2 channels
Channel positions : Front: L R
Sampling rate : 48.0 KHz
Bit depth : 16 bits
Compression mode : Lossy
Delay relative to video : -66ms
Stream size : 32.3 MiB (3%)
Menu

Постеры и обложка

Скриншоты меню


_________________
Показать сообщения:    

Текущее время: Сегодня 07:11

Часовой пояс: GMT



Вы не можете начинать темы
Вы не можете отвечать на сообщения
Вы не можете редактировать свои сообщения
Вы не можете удалять свои сообщения
Вы не можете голосовать в опросах
Вы не можете прикреплять файлы к сообщениям
Вы не можете скачивать файлы