Ивановский Торрент трекер
Яндекс.Погода
 

[Цитировать]
HUNTER

Просто Джексон - Год выпуска: 2012
Страна: Россия
Жанр: криминал
Продолжительность: 01:30:15
Перевод: Оригинал-Режиссер: Леонид Пляскин
Сценарий: Максим Есаулов, Дмитрий Филиппов, Андрей Романов
Продюсер: Ада Ставиская
Оператор: Александр Штанов-В ролях: Дмитрий Быковский-Ромашов (Евгений Иванов (Джексон)), Андрей Горбачев (Сергей Хороший), Екатерина Суворова (Валентина Тихомирова), Дмитрий Орлов (Алексей Дегтярев), Роман Бокашевский (Алексей Ивченко), Андрей Гульнев (Константин Воронюк), Елизавета Прилепская (Верка), Сергей Великанов (Иван Архангельский), Андрей Мокеев (Пётр Ханин), Леонид Луценко (Камов)
-Описание: Расследуя дело о пропаже сына бывшего начальника угрозыска Дегтярёва, Джексон задерживает возможного подозреваемого — владельца машины, в который силой увезли похищенного юношу. В салоне автомобиля предполагаемого похитителя Джексон находит сумку, доверху набитую деньгами в банковской упаковке, украденными во время последнего из серии ограблений и убийств инкассаторов. Задержанный Ивченко отказывается общаться с Хмелёвой, ведущей его дело, но Джексон знает, что этот бандит остаётся единственной ниточкой, связывающей оба дела — похищение Дегтярёва и разбойные нападения на банковские броневики. Версия Джексона подтверждается самым печальным образом: подельники Ивченко расправляются с девушкой майора Валентиной. Вооружившись до зубов купленным на чёрном рынке оружием, Джексон начинает свою собственную борьбу с похитителями, которую он сам называет «война миров».-Рейтинг:-Качество: SATRip
Формат: AVI
Видео кодек: XviD
Аудио кодеk: MP3
Видео: 720x384 (1.88:1), 25 fps, XviD MPEG-4 ~1969 kbps avg, 0.28 bit/pixel
Аудио: Аудио #1: 48 kHz, MPEG Layer 3, 2 ch, ~192.00 kbps avg
-

МедиаИнфо

Код: copyText_writeLink('this.parentNode.parentNode.nextSibling.nextSibling'); General
Complete name : Prosto.Dzhekson.2012.SATRip.avi
Format : AVI
Format/Info : Audio Video Interleave
File size : 1.37 GiB
Duration : 1h 30mn
Overall bit rate : 2 169 Kbps
Writing application : VirtualDubMod 1.5.4.1 (build 2178/release)
Writing library : VirtualDubMod build 2178/release
Video
ID : 0
Format : MPEG-4 Visual
Format profile : Advanced Simple@L5
Format settings, BVOP : No
Format settings, QPel : No
Format settings, GMC : No warppoints
Format settings, Matrix : Custom
Codec ID : XVID
Codec ID/Hint : XviD
Duration : 1h 30mn
Bit rate : 1 969 Kbps
Width : 720 pixels
Height : 384 pixels
Display aspect ratio : 1.875
Frame rate : 25.000 fps
Color space : YUV
Chroma subsampling : 4:2:0
Bit depth : 8 bits
Scan type : Progressive
Bits/(Pixel*Frame) : 0.285
Stream size : 1.24 GiB (91%)
Writing library : XviD 64
Audio
ID : 1
Format : MPEG Audio
Format version : Version 1
Format profile : Layer 3
Mode : Joint stereo
Mode extension : MS Stereo
Codec ID : 55
Codec ID/Hint : MP3
Duration : 1h 30mn
Bit rate mode : Constant
Bit rate : 192 Kbps
Channel(s) : 2 channels
Sampling rate : 48.0 KHz
Stream size : 124 MiB (9%)
Alignment : Aligned on interleaves
Interleave, duration : 80 ms (2.00 video frames)
Interleave, preload duration : 504 ms
Writing library : LAME3.97
Encoding settings : -m j -V 4 -q 2 -lowpass 18.6 -b 192
-
- -
Показать сообщения:    

Текущее время: 22-Сен 05:26

Часовой пояс: UTC - 1


Вы не можете начинать темы
Вы не можете отвечать на сообщения
Вы не можете редактировать свои сообщения
Вы не можете удалять свои сообщения
Вы не можете голосовать в опросах
Вы не можете прикреплять файлы к сообщениям
Вы не можете скачивать файлы

!ВНИМАНИЕ!
Сайт не предоставляет электронные версии произведений, а занимается лишь коллекционированием и каталогизацией ссылок, присылаемых и публикуемых на форуме нашими читателями. Если вы являетесь правообладателем какого-либо представленного материала и не желаете, чтобы ссылка на него находилась в нашем каталоге, свяжитесь с нами, и мы незамедлительно удалим ее. Файлы для обмена на трекере предоставлены пользователями сайта, и администрация не несет ответственности за их содержание. Просьба не заливать файлы, защищенные авторскими правами, а также файлы нелегального содержания!