Ивановский Торрент трекер
Яндекс.Погода
 

[Цитировать]
mihis

Простой план / A Simple Plan«Sometimes good people do evil things.» Год выпуска: 1998
Страна: США, Германия, Франция, Япония, Великобритания
Жанр: Триллер, драма, криминал
Продолжительность: 01:56:14
Перевод : Профессиональный (двухголосый закадровый) + Авторский (одноголосый закадровый) П. Карцев + Оригинал
Cубтитры: Русские, английские (отдельно)
Режиссер: Сэм Рэйми
В ролях:
Билл Пэкстон, Бриджит Фонда, Билли Боб Торнтон, Брент Бриско, Джек Уолш, Челси Росс, Бекки Энн Бэйкер, Гэри Коул, Боб Дэвис, Питер Сивертсен и др.
Описание:
Братья Хэнк и Джейкоб и их приятель Лу находят 4 миллиона долларов в разбившемся самолёте в лесах Миннесоты. Они догадываются, что у этих денег есть хозяин и, возможно, он уже ищет пропажу. И всё же они решают оставить деньги себе. Что ж, самый трудный шаг был сделан. Но смогут ли они дойти до конца?!…

Качество: DVDRip-AVC
Формат: MKV
Видео кодек: H.264
Аудио кодек: АС3
Видео: AVC, 720x576@1024х576 (16:9), 25.000 fps, 2 435 Kbps (0.235 bit/pixel)
Аудио : AC-3, 48.0 KHz, 6 ch, 384 Kbps DVO, Eng
Аудио : AC-3, 48.0 KHz, 2 ch, 192 Kbps AVO

MediaInfo

Prostoy.plan.1998.x264.DVDRip.(AVC).olegek70.mkv
Format : Matroska
Format version : Version 1
File size : 2.76 GiB
Duration : 1h 56mn
Overall bit rate : 3 398 Kbps
Encoded date : UTC 2013-05-29 13:30:06
Writing application : mkvmerge v2.1.0 ('Another Place To Fall') built on Aug 19 2007 13:40:07
Writing library : libebml v0.7.7 + libmatroska v0.8.1
Video
ID : 1
Format : AVC
Format/Info : Advanced Video Codec
Format profile : High@L4.1
Format settings, CABAC : Yes
Format settings, ReFrames : 8 frames
Codec ID : V_MPEG4/ISO/AVC
Duration : 1h 56mn
Bit rate : 2 435 Kbps
Width : 720 pixels
Height : 576 pixels
Display aspect ratio : 16:9
Original display aspect ratio : 5:4
Frame rate : 25.000 fps
Standard : PAL
Color space : YUV
Chroma subsampling : 4:2:0
Bit depth : 8 bits
Scan type : Progressive
Bits/(Pixel*Frame) : 0.235
Stream size : 1.92 GiB (70%)
Writing library : x264 core 115 r1937 aa21558
Encoding settings : cabac=1 / ref=8 / deblock=1:-3:-3 / analyse=0x3:0x113 / me=umh / subme=8 / psy=1 / psy_rd=1.00:0.10 / mixed_ref=0 / me_range=32 / chroma_me=1 / trellis=2 / 8x8dct=1 / cqm=0 / deadzone=21,11 / fast_pskip=1 / chroma_qp_offset=-3 / threads=6 / sliced_threads=0 / nr=0 / decimate=1 / interlaced=0 / bluray_compat=0 / constrained_intra=0 / bframes=8 / b_pyramid=2 / b_adapt=2 / b_bias=0 / direct=3 / weightb=1 / open_gop=0 / weightp=0 / keyint=250 / keyint_min=25 / scenecut=40 / intra_refresh=0 / rc_lookahead=30 / rc=2pass / mbtree=1 / bitrate=2435 / ratetol=1.0 / qcomp=0.60 / qpmin=15 / qpmax=47 / qpstep=3 / cplxblur=20.0 / qblur=0.5 / ip_ratio=1.40 / aq=1:1.10
Language : English
Default : Yes
Forced : No
Audio #1
ID : 2
Format : AC-3
Format/Info : Audio Coding 3
Mode extension : CM (complete main)
Format settings, Endianness : Big
Codec ID : A_AC3
Duration : 1h 56mn
Bit rate mode : Constant
Bit rate : 384 Kbps
Channel(s) : 6 channels
Channel positions : Front: L C R, Side: L R, LFE
Sampling rate : 48.0 KHz
Bit depth : 16 bits
Compression mode : Lossy
Stream size : 319 MiB (11%)
Title : Профессиональный двухголосый
Language : Russian
Default : Yes
Forced : No
Audio #2
ID : 3
Format : AC-3
Format/Info : Audio Coding 3
Mode extension : CM (complete main)
Format settings, Endianness : Big
Codec ID : A_AC3
Duration : 1h 56mn
Bit rate mode : Constant
Bit rate : 192 Kbps
Channel(s) : 2 channels
Channel positions : Front: L R
Sampling rate : 48.0 KHz
Bit depth : 16 bits
Compression mode : Lossy
Stream size : 160 MiB (6%)
Title : Авторский(одноголосый (П. Карцев)
Language : Russian
Default : No
Forced : No
Audio #3
ID : 4
Format : AC-3
Format/Info : Audio Coding 3
Mode extension : CM (complete main)
Format settings, Endianness : Big
Codec ID : A_AC3
Duration : 1h 56mn
Bit rate mode : Constant
Bit rate : 384 Kbps
Channel(s) : 6 channels
Channel positions : Front: L C R, Side: L R, LFE
Sampling rate : 48.0 KHz
Bit depth : 16 bits
Compression mode : Lossy
Stream size : 319 MiB (11%)
Title : Оригинал
Language : English
Default : No
Forced : No
Показать сообщения:    

Текущее время: 25-Сен 08:57

Часовой пояс: UTC - 1


Вы не можете начинать темы
Вы не можете отвечать на сообщения
Вы не можете редактировать свои сообщения
Вы не можете удалять свои сообщения
Вы не можете голосовать в опросах
Вы не можете прикреплять файлы к сообщениям
Вы не можете скачивать файлы

!ВНИМАНИЕ!
Сайт не предоставляет электронные версии произведений, а занимается лишь коллекционированием и каталогизацией ссылок, присылаемых и публикуемых на форуме нашими читателями. Если вы являетесь правообладателем какого-либо представленного материала и не желаете, чтобы ссылка на него находилась в нашем каталоге, свяжитесь с нами, и мы незамедлительно удалим ее. Файлы для обмена на трекере предоставлены пользователями сайта, и администрация не несет ответственности за их содержание. Просьба не заливать файлы, защищенные авторскими правами, а также файлы нелегального содержания!