Ивановский Торрент трекер
Яндекс.Погода
 

[Цитировать]
димитри37

Проснись и умри
Volver a morir
Wake Up and Die

Страна: Колумбия
Жанр: триллер
Год выпуска: 2011
Продолжительность: 01:20:26
Перевод: Одноголосый закадровый Вадим Белов
Cубтитры: нет
Оригинальная аудиодорожка: испанский
Режиссер: Мигель Уррутиа / Miguel Urrutia
В ролях: Андреа Монтенегро, Луис Фернандо Бохоркес
Описание: Женщина утром просыпается в постели с незнакомым мужчиной. После недолгого выяснения того как она здесь оказалась, они занимаются сексом, во время которого мужчина ее убивает. Время отматывается назад. Женщина утром просыпается в постели с незнакомым мужчиной...

Качество видео: DVDRip
Формат видео: AVI
Видео: XviD, 720x400 (16:9), 25.000 fps, 1756 Kbps, 0.244 bt/px
Аудио: AC-3, 48.0 KHz, 2 ch, 192 Kbps, CBR Russian
Аудио 2: AC-3, 48.0 KHz, 6 ch, 448 Kbps, CBR Espanol

MediaInfo

Общее
Полное имя : D:\Prosnis.i.umri_2011.DVDRip.avi
Формат : AVI
Формат/Информация : Audio Video Interleave
Размер файла : 1,35 Гбайт
Продолжительность : 1 ч. 20 м.
Общий поток : 2405 Кбит/сек
Программа кодирования : VirtualDubModRus 1.5.10.2 (build 2542/release)
Библиотека кодирования : VirtualDubMod build 2542/release
Видео
Идентификатор : 0
Формат : MPEG-4 Visual
Профиль формата : Simple@L3
Параметр BVOP формата : Нет
Параметр QPel формата : Нет
Параметр GMC формата : Без точки перехода
Параметр матрицы формата : Default (H.263)
Идентификатор кодека : XVID
Идентификатор кодека/Подсказка : XviD
Продолжительность : 1 ч. 20 м.
Битрейт : 1756 Кбит/сек
Ширина : 720 пикселей
Высота : 400 пикселей
Соотношение сторон : 16:9
Частота кадров : 25,000 кадров/сек
Цветовое пространство : YUV
Субдискретизация насыщенности : 4:2:0
Битовая глубина : 8 бит
Тип развёртки : Прогрессивная
Метод сжатия : С потерями
Бит/(Пиксели*Кадры) : 0.244
Размер потока : 1010 Мбайт (73%)
Библиотека кодирования : XviD 64
Аудио #1
Идентификатор : 1
Формат : AC-3
Формат/Информация : Audio Coding 3
Расширение режима : CM (complete main)
Параметр Endianness формата : Big
Идентификатор кодека : 2000
Продолжительность : 1 ч. 20 м.
Вид битрейта : Постоянный
Битрейт : 192 Кбит/сек
Каналы : 2 канала
Расположение каналов : Front: L R
Частота : 48,0 КГц
Битовая глубина : 16 бит
Метод сжатия : С потерями
Размер потока : 110 Мбайт (8%)
Выравнивание : Соединение по промежуткам
Продолжительность промежутка : 160 мс. (4,00 видеокадра)
Время предзагрузки промежутка : 640 мс.
Аудио #2
Идентификатор : 2
Формат : AC-3
Формат/Информация : Audio Coding 3
Расширение режима : CM (complete main)
Параметр Endianness формата : Big
Идентификатор кодека : 2000
Продолжительность : 1 ч. 20 м.
Вид битрейта : Постоянный
Битрейт : 448 Кбит/сек
Каналы : 6 каналов
Расположение каналов : Front: L C R, Side: L R, LFE
Частота : 48,0 КГц
Битовая глубина : 16 бит
Метод сжатия : С потерями
Размер потока : 258 Мбайт (19%)
Выравнивание : Разделение по промежуткам
Продолжительность промежутка : 69 мс. (1,71 видеокадра)
Время предзагрузки промежутка : 548 мс.

Скриншот c названием фильма

Скриншоты

-
Показать сообщения:    

Текущее время: 24-Сен 02:26

Часовой пояс: UTC - 1


Вы не можете начинать темы
Вы не можете отвечать на сообщения
Вы не можете редактировать свои сообщения
Вы не можете удалять свои сообщения
Вы не можете голосовать в опросах
Вы не можете прикреплять файлы к сообщениям
Вы не можете скачивать файлы

!ВНИМАНИЕ!
Сайт не предоставляет электронные версии произведений, а занимается лишь коллекционированием и каталогизацией ссылок, присылаемых и публикуемых на форуме нашими читателями. Если вы являетесь правообладателем какого-либо представленного материала и не желаете, чтобы ссылка на него находилась в нашем каталоге, свяжитесь с нами, и мы незамедлительно удалим ее. Файлы для обмена на трекере предоставлены пользователями сайта, и администрация не несет ответственности за их содержание. Просьба не заливать файлы, защищенные авторскими правами, а также файлы нелегального содержания!