Ивановский Торрент трекер
Яндекс.Погода
 

[Цитировать]
mihis

Пророчество. Пенталогия / The Prophecy. Pentalogy5 фильмов

Пророчество / The Prophecy (1995) HDRip

Пророчество / The Prophecy«Marked By Fate, Doomed By Prophecy... Time Is Running Out For Mankind.»Год выпуска: 1995
Производство: США
Жанр: ужасы, фэнтези, триллер
Продолжительность: 01:37:45
Перевод: Профессиональный (многоголосый закадровый) + Авторский (одноголосый закадровый) (Гаврилов)
Cубтитры: нет
Режиссер: Грегори Уайден / Gregory Widen
В ролях: Кристофер Уокен, Элиас Котеас, Вирджиния Мэдсен, Эрик Штолц, Эдам Голдберг, Стив Хитнер, Дж. С. Куинн, Морайа Шайнинг-Дав Снайдер, Аманда Пламмер, Вигго Мортенсен
Описание: Гавриил послан на Землю забрать душу убитого полковника, чтобы уничтожить все человечество. Только полицейский из Лос-Анджелеса Томас и учительница из Аризоны Кэтрин пытаются ему помешать.

Качество: HDRip
Формат: AVI
Видео кодек: XviD
Аудио кодек: AC3
Видео: 720x304 (2.37:1), 23.976 fps, XviD build 64 ~1730 kbps avg, 0.33 bit/pixel
Аудио #1: 48 kHz, AC3 Dolby Digital, 2 ch, ~192.00 kbps avg MVO
Аудио #2: 48 kHz, AC3 Dolby Digital, 2 ch, ~192.00 kbps avg AVO

MediaInfo

The Prophecy 1995.HDRip.avi
Format : AVI
Format/Info : Audio Video Interleave
File size : 1.45 GiB
Duration : 1h 37mn
Overall bit rate : 2 130 Kbps
Movie name : The Prophecy.1995.HDRip
Writing application : VirtualDubMod 1.5.10.2 (build 2540/release)
Video
ID : 0
Format : MPEG-4 Visual
Format profile : Advanced Simple@L5
Format settings, BVOP : 1
Format settings, QPel : No
Format settings, GMC : No warppoints
Format settings, Matrix : Custom
Codec ID : XVID
Codec ID/Hint : XviD
Duration : 1h 37mn
Bit rate : 1 731 Kbps
Width : 720 pixels
Height : 304 pixels
Display aspect ratio : 2.35:1
Frame rate : 23.976 fps
Color space : YUV
Chroma subsampling : 4:2:0
Bit depth : 8 bits
Scan type : Progressive
Compression mode : Lossy
Bits/(Pixel*Frame) : 0.330
Stream size : 1.18 GiB (81%)
Writing library : XviD 64
Audio #1
ID : 1
Format : AC-3
Format/Info : Audio Coding 3
Codec ID : 2000
Duration : 1h 37mn
Bit rate mode : Constant
Bit rate : 192 Kbps
Channel(s) : 2 channels
Sampling rate : 48.0 KHz
Compression mode : Lossy
Stream size : 134 MiB (9%)
Alignment : Split accross interleaves
Interleave, duration : 42 ms (1.00 video frame)
Interleave, preload duration : 500 ms
Audio #2
ID : 2
Format : AC-3
Format/Info : Audio Coding 3
Codec ID : 2000
Duration : 1h 37mn
Bit rate mode : Constant
Bit rate : 192 Kbps
Channel(s) : 2 channels
Sampling rate : 48.0 KHz
Compression mode : Lossy
Stream size : 134 MiB (9%)
Alignment : Split accross interleaves
Interleave, duration : 42 ms (1.00 video frame)
Interleave, preload duration : 500 ms

Пророчество 2 / The Prophecy 2 (1997) DVDRip

Пророчество 2 / The Prophecy 2«An evil force has declared war...»Год выпуска: 1997
Производство: США
Жанр: ужасы, фэнтези, триллер
Продолжительность: 01:20:01
Перевод: Профессиональный (многоголосый, закадровый) + Оригинал
Cубтитры: нет
Режиссер: Грег Спенс / Greg Spence
В ролях: Кристофер Уокен, Расселл Вонг, Дженнифер Билз, Бриттэни Мерфи, Гленн Дэнзиг, Эрик Робертс
Описание: Война за небеса далека от окончания. Габриэль, самый могущественный из ангелов господних, возвращается на землю. Он не может похвастаться тем, что его положение достаточно прочно, и что армия ангелов ему беспрекословно подчиняется. Его страшная миссия — разрушить и уничтожить самое ценное творение Господа — человечество.

Качество: DVDRip
Формат: AVI
Видео кодек: XviD
Аудио кодек: AC3
Видео: 720x384 (1.88:1), 25 fps, XviD build 64 ~1914 kbps avg, 0.28 bit/pixel
Аудио #1: 48 kHz, AC3 Dolby Digital, 6 ch, ~448.00 kbps avg MVO
Аудио #2: 48 kHz, AC3 Dolby Digital, 2/0 (L,R) ch, ~224 kbps Eng

MediaInfo

The Prophecy 2.1997.DVDRip.avi
Format : AVI
Format/Info : Audio Video Interleave
File size : 1.45 GiB
Duration : 1h 20mn
Overall bit rate : 2 601 Kbps
Movie name : The Prophecy 2.1997.DVDRip
Writing application : VirtualDubMod 1.5.10.2 (build 2540/release)
Video
ID : 0
Format : MPEG-4 Visual
Format profile : Advanced Simple@L5
Format settings, BVOP : 1
Format settings, QPel : No
Format settings, GMC : No warppoints
Format settings, Matrix : Custom
Codec ID : XVID
Codec ID/Hint : XviD
Duration : 1h 20mn
Bit rate : 1 915 Kbps
Width : 720 pixels
Height : 384 pixels
Display aspect ratio : 1.85:1
Frame rate : 25.000 fps
Color space : YUV
Chroma subsampling : 4:2:0
Bit depth : 8 bits
Scan type : Progressive
Compression mode : Lossy
Bits/(Pixel*Frame) : 0.277
Stream size : 1.07 GiB (74%)
Writing library : XviD 64
Audio #1
ID : 1
Format : AC-3
Format/Info : Audio Coding 3
Codec ID : 2000
Duration : 1h 19mn
Bit rate mode : Constant
Bit rate : 448 Kbps
Channel(s) : 6 channels
Sampling rate : 48.0 KHz
Compression mode : Lossy
Stream size : 256 MiB (17%)
Alignment : Split accross interleaves
Interleave, duration : 40 ms (1.00 video frame)
Interleave, preload duration : 500 ms
Audio #2
ID : 2
Format : AC-3
Format/Info : Audio Coding 3
Mode extension : CM (complete main)
Format settings, Endianness : Big
Codec ID : 2000
Duration : 1h 20mn
Bit rate mode : Constant
Bit rate : 224 Kbps
Channel(s) : 2 channels
Channel positions : Front: L R
Sampling rate : 48.0 KHz
Bit depth : 16 bits
Compression mode : Lossy
Stream size : 128 MiB (9%)
Alignment : Split accross interleaves
Interleave, duration : 40 ms (1.00 video frame)
Interleave, preload duration : 500 ms

Пророчество 3: Вознесение / The Prophecy 3: The Ascent (2000) HDRip

Пророчество 3: Вознесение / The Prophecy 3: The Ascent«The Final, Most Thrilling Chapter!»Год выпуска: 2000
Производство: США
Жанр: ужасы, фэнтези, триллер
Продолжительность: 01:23:53
Перевод: Профессиональный (многоголосый, закадровый) + Оригинал
Cубтитры: нет
Режиссер: Патрик Люссье / Patrick Lussier
В ролях: Кристофер Уокен, Винсент Спано, Кэйрен Энн Батлер, Брэд Дуриф, Джек МакГи, Скотт Клевердон
Описание: Война ангелов не закончилась. Восставшие намеривались изменить мировоздание во имя нового Властителя — Пириела. И на их пути оставалась последняя преграда — Дэниел, сын ангела и земной женщины. Именно его должен разыскать и уничтожить посланец небес Зофаэл. Судьба человечества зависела от единственного существа, но не настолько, что бы в одиночку противостоять воинам неба…

Качество: HDRip
Формат: AVI
Видео кодек: XviD
Аудио кодек: AC3
Видео: 704x384 (1.83:1), 23.976 fps, XviD build 64 ~2018 kbps avg, 0.31 bit/pixel
Аудио #1: 48 kHz, AC3 Dolby Digital, 2/0 (L,R) ch, ~224 kbps MVO
Аудио #2: 48 kHz, AC3 Dolby Digital, 2/0 (L,R) ch, ~224 kbps Eng

MediaInfo

The Prophecy 3.2000.HDRip.avi
Format : AVI
Format/Info : Audio Video Interleave
File size : 1.45 GiB
Duration : 1h 23mn
Overall bit rate : 2 481 Kbps
Movie name : The Prophecy 3.2000.HDRip
Writing application : VirtualDubMod 1.5.10.2 (build 2540/release)
Video
ID : 0
Format : MPEG-4 Visual
Format profile : Advanced Simple@L5
Format settings, BVOP : 1
Format settings, QPel : No
Format settings, GMC : No warppoints
Format settings, Matrix : Custom
Codec ID : XVID
Codec ID/Hint : XviD
Duration : 1h 23mn
Bit rate : 2 019 Kbps
Width : 704 pixels
Height : 384 pixels
Display aspect ratio : 1.85:1
Frame rate : 23.976 fps
Color space : YUV
Chroma subsampling : 4:2:0
Bit depth : 8 bits
Scan type : Progressive
Compression mode : Lossy
Bits/(Pixel*Frame) : 0.312
Stream size : 1.18 GiB (81%)
Writing library : XviD 64
Audio #1
ID : 1
Format : AC-3
Format/Info : Audio Coding 3
Mode extension : CM (complete main)
Format settings, Endianness : Big
Codec ID : 2000
Duration : 1h 23mn
Bit rate mode : Constant
Bit rate : 224 Kbps
Channel(s) : 2 channels
Channel positions : Front: L R
Sampling rate : 48.0 KHz
Bit depth : 16 bits
Compression mode : Lossy
Stream size : 134 MiB (9%)
Alignment : Split accross interleaves
Interleave, duration : 42 ms (1.00 video frame)
Interleave, preload duration : 500 ms
Audio #2
ID : 2
Format : AC-3
Format/Info : Audio Coding 3
Mode extension : CM (complete main)
Format settings, Endianness : Big
Codec ID : 2000
Duration : 1h 23mn
Bit rate mode : Constant
Bit rate : 224 Kbps
Channel(s) : 2 channels
Channel positions : Front: L R
Sampling rate : 48.0 KHz
Bit depth : 16 bits
Compression mode : Lossy
Stream size : 134 MiB (9%)
Alignment : Split accross interleaves
Interleave, duration : 42 ms (1.00 video frame)
Interleave, preload duration : 500 ms

Пророчество 4: Восстание / The Prophecy 4: Uprising (2005) DVDRip

Пророчество 4: Восстание / The Prophecy 4: Uprising«Ritualistic Killings Lead To An Manuscript Of Evil.»Год выпуска: 2005
Производство: США
Жанр: ужасы, фэнтези, триллер
Продолжительность: 01:24:29
Перевод: Профессиональный (многоголосый, закадровый)
Cубтитры: нет
Режиссер: Джоэль Суассон / Joel Soisson
В ролях: Джон Лайт, Шон Пертуи, Кари Уорер, Джейсон Лондон, Даг Брэдли
Описание: Еще не все пророчества написаны. И когда древняя Книга попадает в руки ничего не подозревающей женщины, та оказывается в центре сражения падших ангелов, которые смешали небеса и ад, чтобы получить власть над будущим.

Качество: DVDRip
Формат: AVI
Видео кодек: DivX
Аудио кодек: AC3
Видео: 720x368 (1.96:1), 25 fps, DivX Codec 6.8.5/6.9.1 ~1921 kbps avg, 0.29 bit/pixel
Аудио: 48 kHz, AC3 Dolby Digital, 3/2 (L,C,R,l,r) + LFE ch, ~384 kbps MVO

MediaInfo

The Prophecy 4.2005.DVDRip.avi
Format : AVI
Format/Info : Audio Video Interleave
File size : 1.37 GiB
Duration : 1h 24mn
Overall bit rate : 2 315 Kbps
Writing application : VirtualDubMod 1.5.10.2 (build 2540/release)
Writing library : VirtualDubMod build 2540/release
Video
ID : 0
Format : MPEG-4 Visual
Format settings, BVOP : 1
Format settings, QPel : No
Format settings, GMC : No warppoints
Format settings, Matrix : Default (H.263)
Muxing mode : Packed bitstream
Codec ID : DX50
Codec ID/Hint : DivX 5
Duration : 1h 24mn
Bit rate : 1 921 Kbps
Width : 720 pixels
Height : 368 pixels
Display aspect ratio : 5:4
Original display aspect ratio : 1.957
Frame rate : 25.000 fps
Color space : YUV
Chroma subsampling : 4:2:0
Bit depth : 8 bits
Scan type : Progressive
Compression mode : Lossy
Bits/(Pixel*Frame) : 0.290
Stream size : 1.13 GiB (83%)
Writing library : DivX 6.8.5 (UTC 2009-08-20)
Audio
ID : 1
Format : AC-3
Format/Info : Audio Coding 3
Mode extension : CM (complete main)
Format settings, Endianness : Big
Codec ID : 2000
Duration : 1h 24mn
Bit rate mode : Constant
Bit rate : 384 Kbps
Channel(s) : 6 channels
Channel positions : Front: L C R, Side: L R, LFE
Sampling rate : 48.0 KHz
Bit depth : 16 bits
Compression mode : Lossy
Stream size : 232 MiB (17%)
Alignment : Split accross interleaves
Interleave, duration : 40 ms (1.00 video frame)
Interleave, preload duration : 500 ms

Пророчество 5: Покинутые / The Prophecy 5: Forsaken (2005) DVDRip

Пророчество 5: Покинутые / The Prophecy 5: Forsaken«Sometimes the interests of heaven and hell are not so far apart.»Год выпуска: 2005
Производство: США
Жанр: ужасы, фэнтези, триллер
Продолжительность: 01:11:46
Перевод: Профессиональный (многоголосый, закадровый)
Cубтитры: нет
Режиссер: Джоэль Суассон / Joel Soisson
В ролях: Кари Вурер, Джейсон Скотт Ли, Джон Лайт, Джейсон Лондон, Тони Тодд, Борис Петров, Дарья Чобану, Джорджия Ника, Нику Константин, Василеску Валентин
Описание: Древняя рукопись, которая говорит о приходе Антихриста, попадает в руки ничего не подозревающей женщины. Теперь, ее преследуют ангелы, с целью получения информации из книги. Древний религиозный текст — Lexicon — продолжает писать сам себя и показывать вечные тайны вселенной, это, как теперь полагают, содержит точное время, когда прибудет Антихрист!

Качество: DVDRip
Формат: AVI
Видео кодек: XviD
Аудио кодек: AC3
Видео: 720x384 (1.88:1), 25 fps, XviD build 50 ~2342 kbps avg, 0.34 bit/pixel
Аудио: 48 kHz, AC3 Dolby Digital, 3/2 (L,C,R,l,r) + LFE ch, ~384 kbps MVO

MediaInfo

The Prophecy 5.2005.DVDRip.avi
Format : AVI
Format/Info : Audio Video Interleave
File size : 1.37 GiB
Duration : 1h 11mn
Overall bit rate : 2 737 Kbps
Writing application : VirtualDubMod 1.5.10.3 | www.virtualdub-fr.org || (build 2550/release)
Writing library : VirtualDubMod build 2550/release
Video
ID : 0
Format : MPEG-4 Visual
Format profile : Advanced Simple@L5
Format settings, BVOP : 2
Format settings, QPel : No
Format settings, GMC : No warppoints
Format settings, Matrix : Custom
Codec ID : XVID
Codec ID/Hint : XviD
Duration : 1h 11mn
Bit rate : 2 343 Kbps
Width : 720 pixels
Height : 384 pixels
Display aspect ratio : 1.85:1
Frame rate : 25.000 fps
Color space : YUV
Chroma subsampling : 4:2:0
Bit depth : 8 bits
Scan type : Progressive
Compression mode : Lossy
Bits/(Pixel*Frame) : 0.339
Stream size : 1.17 GiB (86%)
Writing library : XviD 1.2.1 (UTC 2008-12-04)
Audio
ID : 1
Format : AC-3
Format/Info : Audio Coding 3
Mode extension : CM (complete main)
Format settings, Endianness : Big
Codec ID : 2000
Duration : 1h 11mn
Bit rate mode : Constant
Bit rate : 384 Kbps
Channel(s) : 6 channels
Channel positions : Front: L C R, Side: L R, LFE
Sampling rate : 48.0 KHz
Bit depth : 16 bits
Compression mode : Lossy
Stream size : 197 MiB (14%)
Alignment : Split accross interleaves
Interleave, duration : 40 ms (1.00 video frame)
Interleave, preload duration : 500 ms

[Цитировать]
Dedok65

Будь добр,дай скачать.

[Цитировать]
HUNTER

щас скачаем


Показать сообщения:    

Текущее время: 13-Дек 03:41

Часовой пояс: UTC ± 0


Вы не можете начинать темы
Вы не можете отвечать на сообщения
Вы не можете редактировать свои сообщения
Вы не можете удалять свои сообщения
Вы не можете голосовать в опросах
Вы не можете прикреплять файлы к сообщениям
Вы не можете скачивать файлы

!ВНИМАНИЕ!
Сайт не предоставляет электронные версии произведений, а занимается лишь коллекционированием и каталогизацией ссылок, присылаемых и публикуемых на форуме нашими читателями. Если вы являетесь правообладателем какого-либо представленного материала и не желаете, чтобы ссылка на него находилась в нашем каталоге, свяжитесь с нами, и мы незамедлительно удалим ее. Файлы для обмена на трекере предоставлены пользователями сайта, и администрация не несет ответственности за их содержание. Просьба не заливать файлы, защищенные авторскими правами, а также файлы нелегального содержания!