Ивановский Торрент трекер
Яндекс.Погода
 

[Цитировать]
HUNTER

Пропавший Боинг: в поисках слабого звена. / Flight 370: The Missing Link
ПРЕМЬЕРА!!!
Дата/Год выпуска: 20/04/2014
Страна: США
Жанр: Документальный
Продолжительность: 00:44:00
Перевод: Одноголосый закадровый
Русские субтитры: нет
Оригинальная аудиодорожка: английский
Режиссер: Discovery
Телеканал: Discovery Channel
Описание: Discovery Channel отправляется на поиски недостающих звеньев в цепочке, которая ведет к разгадке, пожалуй, самой таинственной авиакатастрофы современности. Вместе с новой программой «Пропавший Боинг: в поисках слабого звена» вы узнаете, почему сегодня, когда перелеты с континента на континент стали безопаснее, чем поездки на автомобиле или даже на велосипеде, столь странные и столь трагические события оказались возможными. Вы познакомитесь с технологиями, которые позволяют отслеживать полет с момента взлета до приземления воздушного судна, и изучите, какие из них могли бы дать сбой в случае с рейсом MH 370.
Авторы программы не оставили без внимания ни одной детали, сделав обзор всех теоретически возможных слабых звеньев. В распоряжении пилотов было несколько систем связи с диспетчерским пунктом – бортовой передатчик, спутники, технология IoT (интернет вещей), которая работает в автоматическом режиме, исключая человеческий фактор, ход рейса отслеживался с земли с помощью радаров. Какой из этих коммуникационных каналов стоит считать самым ненадежным?
Сотни точно таких же машин, как исчезнувший «Боинг» успешно эксплуатируются годами – насколько они застрахованы от неполадок? Какие ноу-хау помогают обнаруживать «черные ящики» на земле и под водой? Можно ли обойти тот жесткий антитеррористический контроль, действующий сегодня в аэропортах всего мира? И, наконец, что скажут ученые любителям сверхъестественного, которые утверждают, что тут не обошлось без НЛО? Затраты на поиски обломков Боинга-777 на месте предполагаемой катастрофы приближаются к отметке в четверть миллиона долларов!
Узнайте больше о самой таинственной авиакатастрофе современности!
Доп. информация: Куда пропал борт МН370?
Выдвигается множество гипотез – от захвата террористами до вмешательства инопланетян.
Оставляя в стороне фантастические гипотезы, предлагаем вашему вниманию десять самых обсуждаемых версий произошедшего в программе «Пропавший Боинг: в поисках слабого звена»
Сэмпл: http://multi-up.com/968332
качество: DVB
формат: TS/M2TS
Видео: MPEG2 Video, аноморф. 544х576, 16:9, 1495 Кбит/сек, 25 fps
Аудио 1: (Rus): MPEG Audio, 128 Кбит/сек, 48 КГц, 2 канала
Аудио 2: (Eng): MPEG Audio, 112 Кбит/сек, 48 КГц, 2 канала

MediaInfo

ОбщееИдентификатор : 16 (0x10)Полное имя : Flight 370 The Missing Link.tsФормат : MPEG-TSРазмер файла : 575 МбайтПродолжительность : 43 м.Режим общего битрейта : ПеременныйОбщий поток : 1828 Кбит/сек
ВидеоИдентификатор : 1113 (0x459)Идентификатор меню : 113 (0x71)Формат : MPEG VideoВерсия формата : Version 2Профиль формата : Main@MainПараметр BVOP формата : ДаПараметр матрицы формата : ВыборочнаяПараметр GOP формата : VariableИдентификатор кодека : 2Продолжительность : 43 м.Вид битрейта : ПеременныйБитрейт : 1495 Кбит/секМаксимальный битрейт : 15,0 Мбит/секШирина : 544 пикселяВысота : 576 пикселейСоотношение сторон : 16:9Частота кадров : 25,000 кадров/секЦветовое пространство : YUVСубдискретизация насыщенности : 4:2:0Битовая глубина : 8 битТип развёртки : ЧересстрочнаяПорядок развёртки : Верхнее поле первоеМетод сжатия : С потерямиБит/(Пиксели*Кадры) : 0.191Размер потока : 470 Мбайт (82%)
Аудио #1Идентификатор : 2113 (0x841)Идентификатор меню : 113 (0x71)Формат : MPEG AudioВерсия формата : Version 1Профиль формата : Layer 2Идентификатор кодека : 4Продолжительность : 43 м.Вид битрейта : ПостоянныйБитрейт : 128 Кбит/секКаналы : 2 каналаЧастота : 48,0 КГцМетод сжатия : С потерямиЗадержка видео : 110 мс.Размер потока : 40,3 Мбайт (7%)Язык : stdЯзык, дополнительно : Clean effects
Аудио #2Идентификатор : 3113 (0xC29)Идентификатор меню : 113 (0x71)Формат : MPEG AudioВерсия формата : Version 1Профиль формата : Layer 2Идентификатор кодека : 4Продолжительность : 43 м.Вид битрейта : ПостоянныйБитрейт : 112 Кбит/секКаналы : 2 каналаЧастота : 48,0 КГцМетод сжатия : С потерямиЗадержка видео : 110 мс.Размер потока : 35,2 Мбайт (6%)Язык : EnglishЯзык, дополнительно : Clean effects

Скриншоты



Показать сообщения:    

Текущее время: 14-Дек 17:08

Часовой пояс: UTC ± 0


Вы не можете начинать темы
Вы не можете отвечать на сообщения
Вы не можете редактировать свои сообщения
Вы не можете удалять свои сообщения
Вы не можете голосовать в опросах
Вы не можете прикреплять файлы к сообщениям
Вы не можете скачивать файлы

!ВНИМАНИЕ!
Сайт не предоставляет электронные версии произведений, а занимается лишь коллекционированием и каталогизацией ссылок, присылаемых и публикуемых на форуме нашими читателями. Если вы являетесь правообладателем какого-либо представленного материала и не желаете, чтобы ссылка на него находилась в нашем каталоге, свяжитесь с нами, и мы незамедлительно удалим ее. Файлы для обмена на трекере предоставлены пользователями сайта, и администрация не несет ответственности за их содержание. Просьба не заливать файлы, защищенные авторскими правами, а также файлы нелегального содержания!