Ивановский Торрент трекер
Яндекс.Погода
Статистика раздачи
Размер:  6.46 GB   |    Зарегистрирован:  3 года 4 месяца   |    Скачан:  0 раз

Полного источника не было: Никогда

 
     
 
 
 

[Цитировать]
HUNTER

Промозглая ночь / Холодная ночь / Pasookkoon / Bleak Night Страна: Южная Корея
Жанр: драма
Год выпуска: 2010
Продолжительность: 01:57:01
Перевод: Одноголосый закадровый DeMon
Cубтитры: английские, русские (ФСГ "Big Boss")
Оригинальная аудиодорожка: корейский
Режиссер: Юн Сон Хён / Yoon Sung Hyun
В ролях: Ли Чже Хун, Пак Чон Мин, Со Чжун Ён, Чан Дэ Юн, Чжо Сон Ха
Описание:
Фильм затрагивает тему подавленной агрессии, описывая напряженные отношения между несколькими сверстниками в гнетущей атмосфере корейской школы.
- || Релиз группы: -Тип релиза: BDRip 720p (рип от BodoiCuHo@TayTO)

Контейнер: MKV
Видео: AVC (x264), 1278x720 (16:9) at 23,976 fps, 5784 Кbps, 0.262 bpp
Аудио 1: AC3; 448 Kbps; CBR; 6 ch; 48 khz | VO - DeMon |
Аудио 2: DTS; 1536 Kbps; CBR; 6 ch; 48 khz | Корейский |
Формат субтитров: softsub (SRT)

Скриншоты || x264 Info || MediaInfo || Notes

Notes:
Аудио дорожка 1 и RU субтитры взяты с этой раздачи, thx: лорди74

MediaInfo

Общее
Уникальный идентификатор                 : 174610464413756046315454700785872184555 (0x835CC0904BC35DE38431C7DB59CCA4EB)
Полное имя                               : Промозглая ночь.2010.L1.720p.BluRay.x264-TayTO.mkv
Формат                                   : Matroska
Версия формата                           : Version 4 / Version 2
Размер файла                             : 6,46 Гбайт
Продолжительность                        : 1 ч. 57 м.
Общий поток                              : 7898 Кбит/сек
Название фильма                          : Bleak Night [720p] [2010] VO
Дата кодирования                         : UTC 2013-12-15 06:53:01
Программа кодирования                    : mkvmerge v6.6.0 ('The Edge Of The In Between') built on Dec  1 2013 17:55:00
Библиотека кодирования                   : libebml v1.3.0 + libmatroska v1.4.1
Видео
Идентификатор                            : 1
Формат                                   : AVC
Формат/Информация                        : Advanced Video Codec
Профиль формата                          : High@L4.1
Параметр CABAC формата                   : Да
Параметр ReFrames формата                : 9 кадров
Идентификатор кодека                     : V_MPEG4/ISO/AVC
Продолжительность                        : 1 ч. 57 м.
Битрейт                                  : 5784 Кбит/сек
Ширина                                   : 1278 пикселей
Высота                                   : 720 пикселей
Соотношение сторон                       : 16:9
Режим частоты кадров                     : Постоянный
Частота кадров                           : 23,976 кадра/сек
Цветовое пространство                    : YUV
Субдискретизация насыщенности            : 4:2:0
Битовая глубина                          : 8 бит
Тип развёртки                            : Прогрессивная
Бит/(Пиксели*Кадры)                      : 0.262
Размер потока                            : 4,73 Гбайт (73%)
Заголовок                                : profile.php?mode=viewprofile&u=22488948
Библиотека кодирования                   : x264 core 140 r2377 1ca7bb9
Настройки программы                      : cabac=1 / ref=9 / deblock=1:-3:-3 / analyse=0x3:0x133 / me=tesa / subme=11 / psy=1 / psy_rd=1.00:0.00 / mixed_ref=1 / me_range=16 / chroma_me=1 / trellis=2 / 8x8dct=1 / cqm=0 / deadzone=21,11 / fast_pskip=0 / chroma_qp_offset=-2 / threads=12 / lookahead_threads=2 / sliced_threads=0 / nr=0 / decimate=1 / interlaced=0 / bluray_compat=0 / constrained_intra=0 / bframes=7 / b_pyramid=2 / b_adapt=2 / b_bias=0 / direct=3 / weightb=1 / open_gop=0 / weightp=2 / keyint=250 / keyint_min=23 / scenecut=40 / intra_refresh=0 / rc=crf / mbtree=0 / crf=16.5 / qcomp=0.70 / qpmin=0 / qpmax=69 / qpstep=4 / ip_ratio=1.40 / pb_ratio=1.30 / aq=1:0.85
Язык                                     : English
Default                                  : Да
Forced                                   : Нет
Коэффициенты матрицы                     : BT.709
Аудио #1
Идентификатор                            : 2
Формат                                   : AC-3
Формат/Информация                        : Audio Coding 3
Расширение режима                        : CM (complete main)
Параметр Endianness формата              : Big
Идентификатор кодека                     : A_AC3
Продолжительность                        : 1 ч. 57 м.
Вид битрейта                             : Постоянный
Битрейт                                  : 448 Кбит/сек
Каналы                                   : 6 каналов
Расположение каналов                     : Front: L C R, Side: L R, LFE
Частота                                  : 48,0 КГц
Битовая глубина                          : 16 бит
Метод сжатия                             : С потерями
Размер потока                            : 375 Мбайт (6%)
Заголовок                                : VO [DeMon]
Язык                                     : Russian
Default                                  : Да
Forced                                   : Нет
Аудио #2
Идентификатор                            : 3
Формат                                   : DTS
Формат/Информация                        : Digital Theater Systems
Режим                                    : 16
Параметр Endianness формата              : Big
Идентификатор кодека                     : A_DTS
Продолжительность                        : 1 ч. 57 м.
Вид битрейта                             : Постоянный
Битрейт                                  : 1509 Кбит/сек
Каналы                                   : 6 каналов
Расположение каналов                     : Front: L C R, Side: L R, LFE
Частота                                  : 48,0 КГц
Битовая глубина                          : 24 бит
Метод сжатия                             : С потерями
Размер потока                            : 1,23 Гбайт (19%)
Язык                                     : Korean
Default                                  : Нет
Forced                                   : Нет
Текст #1
Идентификатор                            : 4
Формат                                   : UTF-8
Идентификатор кодека                     : S_TEXT/UTF8
Идентификатор кодека/Информация          : UTF-8 Plain Text
Язык                                     : English
Default                                  : Нет
Forced                                   : Нет
Текст #2
Идентификатор                            : 5
Формат                                   : UTF-8
Идентификатор кодека                     : S_TEXT/UTF8
Идентификатор кодека/Информация          : UTF-8 Plain Text
Заголовок                                : ФСГ "Big Boss"
Язык                                     : Russian
Default                                  : Нет
Forced                                   : Нет
Меню
00:00:00.000                             : en:00:00:00.000
00:02:12.966                             : en:00:02:12.966
00:04:08.039                             : en:00:04:08.039
00:07:55.433                             : en:00:07:55.433
00:12:55.692                             : en:00:12:55.692
00:16:55.723                             : en:00:16:55.723
00:21:20.237                             : en:00:21:20.237
00:25:56.305                             : en:00:25:56.305
00:32:39.583                             : en:00:32:39.583
00:40:11.034                             : en:00:40:11.034
00:48:26.237                             : en:00:48:26.237
00:53:39.007                             : en:00:53:39.007
00:57:38.538                             : en:00:57:38.538
01:03:45.363                             : en:01:03:45.363
01:11:04.760                             : en:01:11:04.760
01:12:35.101                             : en:01:12:35.101
01:18:00.968                             : en:01:18:00.968
01:22:18.892                             : en:01:22:18.892
01:25:58.904                             : en:01:25:58.904
01:32:23.580                             : en:01:32:23.580
01:40:20.681                             : en:01:40:20.681
01:41:34.714                             : en:01:41:34.714
01:46:25.004                             : en:01:46:25.004
01:51:05.951                             : en:01:51:05.951
01:54:19.269                             : en:01:54:19.269

x264 Info

x264 [info]: frame I:1016 Avg QP:12.48 size: 98910
x264 [info]: frame P:33891 Avg QP:13.99 size: 54960
x264 [info]: frame B:133429 Avg QP:15.99 size: 24369
x264 [info]: consecutive B-frames: 1.7% 2.5% 5.9% 10.8% 11.5% 52.8% 7.0% 7.7%
[iv-torrents.ru].t30151.torrent
Торрент: Зарегистрирован [ 2014-07-24 00:51 ] · 6ED80758C575DB3BF4A011C25BE5C37255961150

Скачать .torrent

Скачать

17 KB

Статус: проверено
Скачан: 0 раз
Размер: 6.46 GB
terms.php


Показать сообщения:    

Текущее время: 14-Дек 21:04

Часовой пояс: UTC ± 0


Вы не можете начинать темы
Вы не можете отвечать на сообщения
Вы не можете редактировать свои сообщения
Вы не можете удалять свои сообщения
Вы не можете голосовать в опросах
Вы не можете прикреплять файлы к сообщениям
Вы можете скачивать файлы

!ВНИМАНИЕ!
Сайт не предоставляет электронные версии произведений, а занимается лишь коллекционированием и каталогизацией ссылок, присылаемых и публикуемых на форуме нашими читателями. Если вы являетесь правообладателем какого-либо представленного материала и не желаете, чтобы ссылка на него находилась в нашем каталоге, свяжитесь с нами, и мы незамедлительно удалим ее. Файлы для обмена на трекере предоставлены пользователями сайта, и администрация не несет ответственности за их содержание. Просьба не заливать файлы, защищенные авторскими правами, а также файлы нелегального содержания!