Ивановский Торрент трекер
Яндекс.Погода
 

[Цитировать]
HUNTER

Прометей / Prometheus / Версия с пропорциями картинки 16x9 (Open matte)
Страна: США, Великобритания
Студия: Scott Free Productions
Жанр: фантастика, триллер, приключения
Год выпуска: 2012
Продолжительность: 1:53:10
Перевод: Профессиональный (многоголосый закадровый) Первый канал
Cубтитры: нет
Оригинальная аудиодорожка: нет
Режиссер: Ридли Скотт / Ridley Scott
В ролях: Нуми Рапас, Майкл Фассбендер, Шарлиз Терон, Идрис Эльба, Гай Пирс, Логан Маршалл-Грин, Шон Харрис, Рейф Сполл, Иман Эллиотт, Бенедикт Вонг.
Описание: 2093 год. Космическое научно-исследовательское судно Прометей прибывает к пункту назначения после двухлетнего полета. Когда команда корабля выходит из анабиоза, то они узнают цель своей экспедиции. Так как были найдены свидетельства о посещении нашей планеты древними инопланетными цивилизациями, то космическая экспедиция отправляется на поиски древних прародителей. После высадки на одном из спутников планеты газового гиганта, команда обнаруживает целый ряд древних сооружений искусственного происхождения. Внутри они находят голограмму, на которой зафиксировано, как человекоподобные пришельцы пытаются спастись от какой-то неизвестной опасности. Ученые находят тело инопланетянина и забирают его на Прометей для исследований.
Доп. информация: Запись со спутника. Вся реклама вырезана. Финальные титры отсутствуют.
Сэмпл: https://yadi.sk/i/2JQrVDakjgmYA
Тип релиза: HDTV 1080i
Контейнер: TS
Видео: MPEG4/AVC, 1920x1080 (16:9), 25 кадров/сек, 6071 Кбит/сек
Аудио 1: Русский AC3, 384 Кбит/сек, 2 канала, 48,0 КГц
Аудио 2: Русский MPEG2, 192 Кбит/сек, 2 канала, 48,0 КГц

MediaInfo

Прометей. 2012 (16x9_Первый HD).ts
Формат : MPEG-TS
Размер файла : 5,53 Гбайт
Продолжительность : 1 ч. 53 м.
Режим общего битрейта : Переменный
Общий поток : 6999 Кбит/сек
Видео
Идентификатор : 305 (0x131)
Идентификатор меню : 20105 (0x4E89)
Формат : AVC
Формат/Информация : Advanced Video Codec
Профиль формата : Main@L4.0
Параметр CABAC формата : Да
Параметр ReFrames формата : 4 кадра
Идентификатор кодека : 27
Продолжительность : 1 ч. 53 м.
Битрейт : 6071 Кбит/сек
Ширина : 1920 пикселей
Высота : 1080 пикселей
Соотношение сторон : 16:9
Частота кадров : 25,000 кадров/сек
Стандарт вещания : Component
Цветовое пространство : YUV
Субдискретизация насыщенности : 4:2:0
Битовая глубина : 8 бит
Тип развёртки : Чересстрочная
Порядок развёртки : Верхнее поле первое
Бит/(Пиксели*Кадры) : 0.117
Размер потока : 4,80 Гбайт (87%)
Основные цвета : BT.709
Характеристики трансфера : BT.709
Коэффициенты матрицы : BT.709
Аудио #1
Идентификатор : 405 (0x195)
Идентификатор меню : 20105 (0x4E89)
Формат : AC-3
Формат/Информация : Audio Coding 3
Расширение режима : CM (complete main)
Параметр Endianness формата : Big
Идентификатор кодека : 6
Продолжительность : 1 ч. 53 м.
Вид битрейта : Постоянный
Битрейт : 384 Кбит/сек
Каналы : 6 каналов
Расположение каналов : Front: L C R, Side: L R, LFE
Частота : 48,0 КГц
Битовая глубина : 16 бит
Метод сжатия : С потерями
Задержка видео : -40 мс.
Размер потока : 311 Мбайт (5%)
Язык : Russian
Аудио #2
Идентификатор : 406 (0x196)
Идентификатор меню : 20105 (0x4E89)
Формат : MPEG Audio
Версия формата : Version 1
Профиль формата : Layer 2
Идентификатор кодека : 3
Продолжительность : 1 ч. 53 м.
Вид битрейта : Постоянный
Битрейт : 192 Кбит/сек
Каналы : 2 канала
Частота : 48,0 КГц
Метод сжатия : С потерями
Задержка видео : -40 мс.
Размер потока : 155 Мбайт (3%)
Язык : Russian

Скриншоты

Показать сообщения:    

Текущее время: 20-Сен 13:54

Часовой пояс: UTC - 1


Вы не можете начинать темы
Вы не можете отвечать на сообщения
Вы не можете редактировать свои сообщения
Вы не можете удалять свои сообщения
Вы не можете голосовать в опросах
Вы не можете прикреплять файлы к сообщениям
Вы не можете скачивать файлы

!ВНИМАНИЕ!
Сайт не предоставляет электронные версии произведений, а занимается лишь коллекционированием и каталогизацией ссылок, присылаемых и публикуемых на форуме нашими читателями. Если вы являетесь правообладателем какого-либо представленного материала и не желаете, чтобы ссылка на него находилась в нашем каталоге, свяжитесь с нами, и мы незамедлительно удалим ее. Файлы для обмена на трекере предоставлены пользователями сайта, и администрация не несет ответственности за их содержание. Просьба не заливать файлы, защищенные авторскими правами, а также файлы нелегального содержания!