Ивановский Торрент трекер
Яндекс.Погода
Статистика раздачи
Размер:  9.53 GB   |    Зарегистрирован:  2 года 2 месяца   |    Скачан:  0 раз

Полного источника не было: Никогда

 
     
 
 
 

[Цитировать]
HUNTER

Проклятый путь / Road to Perdition / Open Matte
Страна: США
Жанр: триллер, драма, криминал
Год выпуска: 2002
Продолжительность: 01:48:52
Перевод: Профессиональный (дублированный)
Cубтитры: нет
Оригинальная аудиодорожка: нет
Режиссер: Сэм Мендес / Sam Mendes
В ролях: Том Хэнкс, Тайлер Хёхлин, Дэниэл Крэйг, Сайэрэн Хайндз, Джуд Лоу, Роб Макси, Пол Ньюман, Лайэм Эйкен, Дженнифер Джейсон Ли , Крэйг Спидл, Иэн Бэрфорд, Стивен П. Данн, Пол Тернер, Кэтлин Кин, Брендан МакКинни, Джеки Моран, Киран О'Хэйр, Джон М. Уильямс, Николас Кэйд, Дэвид Дарлоу, Дилан Бэйкер, Джон Сьеррос, Джон Сэттлер, Майкл Брокмэн, Джон Джадд, Кристиан Столт, Джек Каллахан, Морин Галлахер, Кевин Чэмберлин, Хуанита Уилсон, Лэнс Бэйкер, Роберт Джонс, Лара Филлипс, Хэрри Гренер, Эд Кросс, Джеймс Грин, Джеймс Керри, Мартин Мерфи
Описание: Чикаго времен Великой депрессии. Два сына - Майкл Салливан-младший и Коннор Руни отчаянно стараются завоевать расположение своих отцов - Майкла Салливана-старшего, гангстера из ирландского клана, и Джона Руни, босса Салливана-старшего, заменившего ему отца. Ревность и соперничество толкают их всех на гибельный путь.
Семья Салливана-старшего становится жертвой страшной «профессии» главы семейства. Погибают его любимая жена и младший сын Питер. Месть и трагедия становятся постоянными спутниками Майкла и его оставшегося в живых сына…
Доп. информация: Запись с канала Первый HD. HDTV имеет большее наполнение кадра чем BD http://screenshotcomparison.com/comparison/143048
Сэмпл: http://multi-up.com/1068143
Тип релиза: HDTV 1080i
Контейнер: TS
Видео: AVC, 1920x1080 (16:9), 25.000 fps, 11.7 Mbps (0.226 bit/pixel)
Аудио: MP2, 48.0 KHz, 2 ch, 192 Kbps, CBR (Russian)

MediaInfo

бщее
Идентификатор : 3 (0x3)
Полное имя : K:\Проклятый путь.ts
Формат : MPEG-TS
Размер файла : 9,53 Гбайт
Продолжительность : 1 ч. 48 м.
Режим общего битрейта : Переменный
Общий поток : 12,5 Мбит/сек
Видео
Идентификатор : 2141 (0x85D)
Идентификатор меню : 21004 (0x520C)
Формат : AVC
Формат/Информация : Advanced Video Codec
Профиль формата : Main@L4
Параметр CABAC формата : Да
Параметр ReFrames формата : 3 кадра
Идентификатор кодека : 27
Продолжительность : 1 ч. 48 м.
Битрейт : 11,7 Мбит/сек
Ширина : 1920 пикселей
Высота : 1080 пикселей
Соотношение сторон : 16:9
Частота кадров : 25,000 кадров/сек
Стандарт вещания : Component
Цветовое пространство : YUV
Субдискретизация насыщенности : 4:2:0
Битовая глубина : 8 бит
Тип развёртки : Чересстрочная
Порядок развёртки : Верхнее поле первое
Бит/(Пиксели*Кадры) : 0.226
Размер потока : 8,91 Гбайт (94%)
Цветовой диапазон : Limited
Основные цвета : BT.709
Характеристики трансфера : BT.709
Коэффициенты матрицы : BT.709
Аудио
Идентификатор : 2142 (0x85E)
Идентификатор меню : 21004 (0x520C)
Формат : MPEG Audio
Версия формата : Version 1
Профиль формата : Layer 2
Идентификатор кодека : 4
Продолжительность : 1 ч. 48 м.
Вид битрейта : Постоянный
Битрейт : 192 Кбит/сек
Каналы : 2 канала
Частота : 48,0 КГц
Метод сжатия : С потерями
Задержка видео : -12 мс.
Размер потока : 150 Мбайт (2%)
Язык : Russian

Скриншоты

[iv-torrents.ru].t50001.torrent
Торрент: Зарегистрирован [ 2015-09-27 11:08 ] · 7F95C08073A7E260004A1F284BAFCFC7788A9F1E

Скачать .torrent

Скачать

48 KB

Статус: проверено
Скачан: 0 раз
Размер: 9.53 GB
terms.php


Показать сообщения:    

Текущее время: 12-Дек 02:53

Часовой пояс: UTC ± 0


Вы не можете начинать темы
Вы не можете отвечать на сообщения
Вы не можете редактировать свои сообщения
Вы не можете удалять свои сообщения
Вы не можете голосовать в опросах
Вы не можете прикреплять файлы к сообщениям
Вы можете скачивать файлы

!ВНИМАНИЕ!
Сайт не предоставляет электронные версии произведений, а занимается лишь коллекционированием и каталогизацией ссылок, присылаемых и публикуемых на форуме нашими читателями. Если вы являетесь правообладателем какого-либо представленного материала и не желаете, чтобы ссылка на него находилась в нашем каталоге, свяжитесь с нами, и мы незамедлительно удалим ее. Файлы для обмена на трекере предоставлены пользователями сайта, и администрация не несет ответственности за их содержание. Просьба не заливать файлы, защищенные авторскими правами, а также файлы нелегального содержания!