Проклятие Чаки / Curse of Chucky (UNRATED) (Дон Манчини) [2013, ужасы, Blu-Ray Remux 1080p][Лицензия] :: Ивановский Торрент трекер
Важное объявление!
У Нас Все раздачи мультитрекерные, при нуле пиров в релизах, можете смело вставать на закачку!
Статистика раздачи
Размер:     |    Зарегистрирован:     |    Скачан:     |   
Нет
 
     
 
 
Автор Сообщение

HUNTER

Стаж:
4 года 11 месяцев
Сообщений:
66052

Репутация: 101

[+] [-]
Вне форума [Профиль] [ЛС]

-Проклятие Чаки / Curse of Chucky-

Год выпуска: 2013
Страна: США
Жанр: Ужасы
Продолжительность: 01:36:41
Перевод: Дублированный [Лицензия]
Субтитры: Английские, испанские, французские-В ролях: Брэд Дуриф, Даниэль Бисутти, Кевин Андерсон, Эй Мартинез, Фиона Дуриф, Бреннан Эллиотт, Шэнтал Куэснел, Уилл Войтович, Мейтленд МакКоннелл
Режиссёр: Дон Манчини-Описание:-В центре событий окажется молодая женщина по имени Ника тяжело переживающая самоубийство матери. Ее старшая сестра Барбара — властная, волевая женщина, — приезжает вместе с семьей к Нике, чтобы поддержать ее и уладить дела матери. Пока сестры заняты делом, малолетняя дочь Барбары находит в доме посылку пришедшую от неизвестного адресата, а в ней рыжеволосую куклу Чаки. Вскоре происходит череда кровавых убийств. Ника начинает подозревать, что в убийствах неким образом замешана кукла. По ходу дела выясняется, что у Чаки во всем этом есть особый интерес. Он решил закончить работу которую начал 25 лет назад, и в этот раз он намерен довести дело до кровавого и шокирующего финала.-Качество: Blu-Ray Remux (1080p)
Формат: MKV
Видео кодек: AVC
Аудио кодек: AC3,DTS
Видео: MPEG-4 AVC, 31249 Кбит/с, 1920x1080 , 23.976 fps
Аудио 1: Русский AC3, 6 ch, 448 Кбит/с, 48.0 KHz
Аудио 2: Русский DTS, 6 ch, 768 Кбит/с, 48.0 KHz
Аудио 3: Английский DTS-HD MA, 6 ch, 3497 Кбит/с, 48.0 KHz

Рейтинг

Рейтинг:

MI

Общее
Уникальный идентификатор : 178167886681049526666580996707951893534 (0x8609E305E57CF7E7A4AF3A3ED90CDC1E)
Полное имя : D:Curse Of Chucky 2013 1080p Blu-ray Remux AVC DTS-HD MA 5.1.mkv
Формат : Matroska
Версия формата : Version 2
Размер файла : 23,6 Гбайт
Продолжительность : 1 ч. 36 м.
Режим общего битрейта : Переменный
Общий поток : 34,9 Мбит/сек
Название фильма : Curse Of Chucky 2013 1080p Blu-ray Remux AVC DTS-HD MA 5.1 - KRaLiMaRKo
Дата кодирования : UTC 2013-10-15 02:59:49
Программа кодирования : mkvmerge v6.3.0 ('You can't stop me!') built on Jun 28 2013 20:09:41
Библиотека кодирования : libebml v1.3.0 + libmatroska v1.4.0
Видео
Идентификатор : 1
Формат : AVC
Формат/Информация : Advanced Video Codec
Профиль формата : [url=mailto:High@L4.1]High@L4.1[/url]
Параметр CABAC формата : Да
Параметр ReFrames формата : 4 кадра
Идентификатор кодека : V_MPEG4/ISO/AVC
Продолжительность : 1 ч. 36 м.
Вид битрейта : Переменный
Максимальный битрейт : 35,0 Мбит/сек
Ширина : 1920 пикселей
Высота : 1080 пикселей
Соотношение сторон : 16:9
Режим частоты кадров : Постоянный
Частота кадров : 23,976 кадра/сек
Цветовое пространство : YUV
Субдискретизация насыщенности : 4:2:0
Битовая глубина : 8 бит
Тип развёртки : Прогрессивная
Default : Да
Forced : Нет
Аудио #1
Идентификатор : 2
Формат : AC-3
Формат/Информация : Audio Coding 3
Расширение режима : CM (complete main)
Параметр Endianness формата : Big
Идентификатор кодека : A_AC3
Продолжительность : 1 ч. 36 м.
Вид битрейта : Постоянный
Битрейт : 448 Кбит/сек
Каналы : 6 каналов
Расположение каналов : Front: L C R, Side: L R, LFE
Частота : 48,0 КГц
Битовая глубина : 16 бит
Метод сжатия : С потерями
Размер потока : 310 Мбайт (1%)
Язык : Russian
Default : Да
Forced : Нет
Аудио #2
Идентификатор : 3
Формат : DTS
Формат/Информация : Digital Theater Systems
Режим : 16
Параметр Endianness формата : Big
Идентификатор кодека : A_DTS
Продолжительность : 1 ч. 36 м.
Вид битрейта : Постоянный
Битрейт : 768 Кбит/сек
Каналы : 6 каналов
Расположение каналов : Front: L C R, Side: L R, LFE
Частота : 48,0 КГц
Битовая глубина : 24 бит
Метод сжатия : С потерями
Размер потока : 531 Мбайт (2%)
Язык : Russian
Default : Нет
Forced : Нет
Аудио #3
Идентификатор : 4
Формат : DTS
Формат/Информация : Digital Theater Systems
Профиль формата : MA / Core
Режим : 16
Параметр Endianness формата : Big
Идентификатор кодека : A_DTS
Продолжительность : 1 ч. 36 м.
Вид битрейта : Переменный
Битрейт : Неизвестно / 1509 Кбит/сек
Каналы : 6 каналов
Расположение каналов : Front: L C R, Side: L R, LFE
Частота : 48,0 КГц
Битовая глубина : 24 бит
Метод сжатия : Без потерь / Lossy
Язык : English
Default : Нет
Forced : Нет
Текст #1
Идентификатор : 5
Формат : PGS
Режим смешивания : zlib
Идентификатор кодека : S_HDMV/PGS
Идентификатор кодека/Информация : The same subtitle format used on BDs/HD-DVDs
Заголовок : SDH
Язык : English
Default : Да
Forced : Нет
Текст #2
Идентификатор : 6
Формат : PGS
Режим смешивания : zlib
Идентификатор кодека : S_HDMV/PGS
Идентификатор кодека/Информация : The same subtitle format used on BDs/HD-DVDs
Язык : French
Default : Нет
Forced : Нет
Текст #3
Идентификатор : 7
Формат : PGS
Режим смешивания : zlib
Идентификатор кодека : S_HDMV/PGS
Идентификатор кодека/Информация : The same subtitle format used on BDs/HD-DVDs
Язык : Spanish
Default : Нет
Forced : Нет
Меню
00:00:00.000 : en:00:00:00.000
00:04:45.410 : en:00:04:45.410
00:08:48.486 : en:00:08:48.486
00:15:30.638 : en:00:15:30.638
00:20:24.265 : en:00:20:24.265
00:27:32.818 : en:00:27:32.818
00:32:40.667 : en:00:32:40.667
00:37:45.305 : en:00:37:45.305
00:43:49.836 : en:00:43:49.836
00:46:52.351 : en:00:46:52.351
00:51:23.247 : en:00:51:23.247
00:56:40.814 : en:00:56:40.814
01:01:22.762 : en:01:01:22.762
01:05:27.423 : en:01:05:27.423
01:09:02.346 : en:01:09:02.346
01:13:29.905 : en:01:13:29.905
01:20:11.890 : en:01:20:11.890
01:24:42.160 : en:01:24:42.160
01:28:20.420 : en:01:28:20.420
01:31:36.116 : en:01:31:36.116

Скриншоты


_________________
Показать сообщения:    

Текущее время: Сегодня 12:04

Часовой пояс: GMT



Вы не можете начинать темы
Вы не можете отвечать на сообщения
Вы не можете редактировать свои сообщения
Вы не можете удалять свои сообщения
Вы не можете голосовать в опросах
Вы не можете прикреплять файлы к сообщениям
Вы не можете скачивать файлы