Важное объявление!
У Нас Все раздачи мультитрекерные, при нуле пиров в релизах, можете смело вставать на закачку!
Статистика раздачи
Размер:     |    Зарегистрирован:     |    Скачан:     |   
Нет
 
     
 
 
Автор Сообщение

HUNTER

Стаж:
5 лет 1 месяц
Сообщений:
68429

Репутация: 101

[+] [-]
Вне форума [Профиль] [ЛС]

Пройденные этапы. Большой взрыв / Lost horizons The big bang
Дата/Год выпуска: 2008
Страна: Великобритания
Жанр: научно-популярный, космонавтика
Продолжительность: 00:58:54
Перевод: Профессиональный (многоголосый закадровый)
Описание: За последние годы исследований физики элементарных частиц перед учеными вновь и вновь встает вопрос: как была создана Вселенная? Был ли это Большой взрыв или начало всему существующему положил другой процесс? Новейшие открытия только умножают вопросы, и в данный момент никто не может ответить на этот вопрос однозначно. Вселенная не торопится расставаться со своими тайнами.
Семпл: http://sendfile.su/1114378
качество: SATRip
формат: AVI
Видео: Xvid 672x384 25.00fps 1632Kbps
Аудио: ac3 96Kbps mono 48000Hz

MediaInfo

GeneralComplete name : C:\Lost horizons The big bang.aviFormat : AVIFormat/Info : Audio Video InterleaveFile size : 729 MiBDuration : 58mn 53sOverall bit rate : 1 730 KbpsWriting application : VirtualDubMod 1.5.10.3 (build 2550/release)Writing library : VirtualDubMod build 2550/release
VideoID : 0Format : MPEG-4 VisualFormat profile : Advanced Simple@L5Format settings, BVOP : 1Format settings, QPel : NoFormat settings, GMC : No warppointsFormat settings, Matrix : Default (H.263)Codec ID : XVIDCodec ID/Hint : XviDDuration : 58mn 53sBit rate : 1 625 KbpsWidth : 672 pixelsHeight : 384 pixelsDisplay aspect ratio : 16:9Frame rate : 25.000 fpsColor space : YUVChroma subsampling : 4:2:0Bit depth : 8 bitsScan type : ProgressiveCompression mode : LossyBits/(Pixel*Frame) : 0.252Stream size : 684 MiB (94%)Writing library : XviD 1.2.0.dev47 (UTC 2006-11-01)
AudioID : 1Format : AC-3Format/Info : Audio Coding 3Mode extension : CM (complete main)Format settings, Endianness : BigCodec ID : 2000Duration : 58mn 50sBit rate mode : ConstantBit rate : 96.0 KbpsChannel(s) : 1 channelChannel positions : Front: CSampling rate : 48.0 KHzBit depth : 16 bitsCompression mode : LossyStream size : 40.4 MiB (6%)Alignment : Split accross interleavesInterleave, duration : 40 ms (1.00 video frame)Interleave, preload duration : 500 ms

Скриншоты




_________________
Показать сообщения:    

Текущее время: Сегодня 15:07

Часовой пояс: GMT



Вы не можете начинать темы
Вы не можете отвечать на сообщения
Вы не можете редактировать свои сообщения
Вы не можете удалять свои сообщения
Вы не можете голосовать в опросах
Вы не можете прикреплять файлы к сообщениям
Вы не можете скачивать файлы