Важное объявление!
У Нас Все раздачи мультитрекерные, при нуле пиров в релизах, можете смело вставать на закачку!
Статистика раздачи
Размер:     |    Зарегистрирован:     |    Скачан:     |   
Нет
 
     
 
 
Автор Сообщение

HUNTER

Стаж:
5 лет
Сообщений:
68053

Репутация: 101

[+] [-]
Вне форума [Профиль] [ЛС]

Происшествие на Саут-Стрит / Pickup on South Street
-Страна: США
Жанр: фильм-нуар
Год выпуска: 1953
Продолжительность: 01:20:24-Перевод: Профессиональный (многоголосый закадровый)-Cубтитры: английские
Оригинальная аудиодорожка: английский-Режиссер: Самюэль Фуллер / Samuel Fuller-В ролях: Ричард Уидмарк, Джин Питерс, Тельма Риттер, Марвин Вай, Ричард Кили-Описание:
Пленка, которую Кенди везла в метро, содержит важную государственную тайну, и она находилась под наблюдением правительственных агентов. Они видят, как некий Скип Маккой крадет пленку, но он ускользает от них. Стремясь вернуть фильм, Джой, бывший парень Кенди, и человек, использующий ее как курьера, убеждает ее искать вора. Она разыскивает Скипа через уличные связи, в то время как полицейские находят его вскоре после кражи…
Бронзовый приз на МКФ в Венеции в 1953 году.--Сэмпл: Скачать-Тип релиза: BDRemux 1080p
Контейнер: MKV-Видео: MPEG-4 AVC Video; 31995 kbps; 1080p; 23.976 fps; 16:9; High Profile 4.1
Аудио 1: Russian; AC3; 48.0 KHz; 2ch; 192 Kbps
Аудио 2: English; FLAC; 48.0 KHz; 1ch; 233 Kbps

MediaInfo

Format : Matroska
Format version : Version 4 / Version 2
File size : 18.2 GiB
Duration : 1h 20mn
Overall bit rate mode : Variable
Overall bit rate : 32.4 Mbps
Movie name : Samuel Fuller - Pickup on South Street (1953)
Encoded date : UTC 2016-09-29 05:24:56
Writing application : mkvmerge v8.3.0 ('Over the Horizon') 64bit
Writing library : libebml v1.3.1 + libmatroska v1.4.2
Attachments : poster.jpg
Video
ID : 1
Format : AVC
Format/Info : Advanced Video Codec
Format profile : High@L4.1
Format settings, CABAC : Yes
Format settings, ReFrames : 3 frames
Codec ID : V_MPEG4/ISO/AVC
Duration : 1h 20mn
Bit rate mode : Variable
Bit rate : 32.0 Mbps
Maximum bit rate : 38.0 Mbps
Width : 1 920 pixels
Height : 1 080 pixels
Display aspect ratio : 16:9
Frame rate mode : Constant
Frame rate : 23.976 (24000/1001) fps
Color space : YUV
Chroma subsampling : 4:2:0
Bit depth : 8 bits
Scan type : Progressive
Bits/(Pixel*Frame) : 0.644
Stream size : 18.0 GiB (99%)
Writing library : x264 core 128 r2216 198a7ea
Encoding settings : cabac=1 / ref=4 / deblock=0:-1:-1 / analyse=0x3:0x133 / me=umh / subme=10 / psy=1 / psy_rd=1.00:0.15 / mixed_ref=1 / me_range=24 / chroma_me=1 / trellis=2 / 8x8dct=1 / cqm=0 / deadzone=21,11 / fast_pskip=1 / chroma_qp_offset=-3 / threads=12 / lookahead_threads=2 / sliced_threads=0 / slices=4 / nr=0 / decimate=1 / interlaced=0 / bluray_compat=1 / constrained_intra=0 / bframes=3 / b_pyramid=1 / b_adapt=2 / b_bias=0 / direct=3 / weightb=1 / open_gop=1 / weightp=1 / keyint=24 / keyint_min=1 / scenecut=40 / intra_refresh=0 / rc_lookahead=24 / rc=2pass / mbtree=0 / bitrate=32000 / ratetol=1.0 / qcomp=0.00 / qpmin=0 / qpmax=69 / qpstep=4 / cplxblur=20.0 / qblur=0.5 / vbv_maxrate=38000 / vbv_bufsize=28500 / nal_hrd=vbr / ip_ratio=1.40 / pb_ratio=1.30 / aq=1:0.70
Default : Yes
Forced : No
Color range : Limited
Color primaries : BT.709
Transfer characteristics : BT.709
Matrix coefficients : BT.709
Audio #1
ID : 2
Format : AC-3
Format/Info : Audio Coding 3
Mode extension : CM (complete main)
Format settings, Endianness : Big
Codec ID : A_AC3
Duration : 1h 20mn
Bit rate mode : Constant
Bit rate : 192 Kbps
Channel(s) : 2 channels
Channel positions : Front: L R
Sampling rate : 48.0 KHz
Frame rate : 31.250 fps (1536 spf)
Compression mode : Lossy
Stream size : 110 MiB (1%)
Title : MVO
Language : Russian
Default : Yes
Forced : No
Audio #2
ID : 3
Format : FLAC
Format/Info : Free Lossless Audio Codec
Codec ID : A_FLAC
Duration : 1h 20mn
Bit rate mode : Variable
Bit rate : 233 Kbps
Channel(s) : 1 channel
Channel positions : Front: C
Sampling rate : 48.0 KHz
Frame rate : 11.719 fps (4096 spf)
Bit depth : 16 bits
Stream size : 134 MiB (1%)
Writing library : libFLAC 1.2.1 (UTC 2007-09-17)
Language : English
Default : No
Forced : No
Text
ID : 4
Format : UTF-8
Codec ID : S_TEXT/UTF8
Codec ID/Info : UTF-8 Plain Text
Duration : 1h 17mn
Bit rate : 63 bps
Count of elements : 955
Stream size : 36.2 KiB (0%)
Title : srt HoH
Language : English
Default : No
Forced : No
Menu
00:00:00.000 : en:00:00:00.000
00:08:37.976 : en:00:08:37.976
00:21:02.303 : en:00:21:02.303
00:27:10.754 : en:00:27:10.754
00:37:36.129 : en:00:37:36.129
00:49:29.884 : en:00:49:29.884
01:01:35.025 : en:01:01:35.025
01:12:43.192 : en:01:12:43.192

Скриншоты


_________________
Показать сообщения:    

Текущее время: Сегодня 08:55

Часовой пояс: GMT



Вы не можете начинать темы
Вы не можете отвечать на сообщения
Вы не можете редактировать свои сообщения
Вы не можете удалять свои сообщения
Вы не можете голосовать в опросах
Вы не можете прикреплять файлы к сообщениям
Вы не можете скачивать файлы