Проект ОКР / OCD Project [Психотерапия, КПТ, SATRip, RUS] (Видеоурок) :: Ивановский Торрент трекер
Важное объявление!
У Нас Все раздачи мультитрекерные, при нуле пиров в релизах, можете смело вставать на закачку!
Статистика раздачи
Размер:     |    Зарегистрирован:     |    Скачан:     |   
Нет
 
     
 
 
Автор Сообщение

HUNTER

Стаж:
4 года 11 месяцев
Сообщений:
66098

Репутация: 101

[+] [-]
Вне форума [Профиль] [ЛС]

Проект ОКР / OCD Project
Страна: USA
Тематика: Психотерапия, КПТ
Тип раздаваемого материала: Видеоурок
Язык: Русский
Перевод: Профессиональный (одноголосый)
Описание: Шестеро человек, страдающих одной из самых тяжелых форм обсессивно-компульсивного расстройства, разругались с друзьями, почти разрушили свои семьи и полностью обанкротились. Окончательно потеряв надежду на выздоровление, они решают объединиться, чтобы сообща попытаться побороть страшное заболевание при помощи интенсивной терапии.
Команда врачей во главе с респектабельным экспертом доктором Дэвидом Толином назначает несчастным изнурительный курс лечения, более известный как экспозиционная терапия. Она предусматривает лечение ОКР с помощью частых и продолжительных контактов пациента с предметами и ситуациями, выпускающими их страхи, негативные эмоции и мысли на поверхность. Каждый из участников ставит перед собой конкретную цель, которую он хочет достичь по окончании психологического курса лечения и с которой справиться ранее ему просто не удавалось.
«Проект ОКР» - полная драматизма история об умных, творческих и чутких людях, чья жизнь однажды почему-то свернула с колеи, и ситуация просто вышла из-под контроля. Героев программы ждет долгий путь от подрывающих здоровье деструктивных мыслей до кардинальной трансформации личности, вызванной уникальной лечебной методикой.
Победимо ли обсессивно-компульсивное расстройство? Ищите ответ на этот вопрос в новой программе TLC
Качество: SATRip
Формат: MP4
Видео кодек: avc
Аудио кодек: AAC
Видео: Codec avc1,600:480,5:4,bit rate 655 Kbps, 25fps
Продолжительность: 06:09:46

Скриншоты

отчет Mediainfo

General
Complete name : F:\loads\prookr\Проект ОКР 2 выпуск.mp4
Format : MPEG-4
Format profile : Base Media
Codec ID : isom
File size : 203 MiB
Duration : 43mn 14s
Overall bit rate mode : Variable
Overall bit rate : 655 Kbps
Writing application : Lavf52.40.0
Video
ID : 1
Format : AVC
Format/Info : Advanced Video Codec
Format profile : High@L3.0
Format settings, CABAC : Yes
Format settings, ReFrames : 3 frames
Codec ID : avc1
Codec ID/Info : Advanced Video Coding
Duration : 43mn 14s
Bit rate : 522 Kbps
Nominal bit rate : 560 Kbps
Width : 600 pixels
Height : 480 pixels
Display aspect ratio : 5:4
Frame rate mode : Variable
Frame rate : 22.656 fps
Original frame rate : 25.000 fps
Minimum frame rate : 1.316 fps
Maximum frame rate : 25.000 fps
Color space : YUV
Chroma subsampling : 4:2:0
Bit depth : 8 bits
Scan type : Progressive
Bits/(Pixel*Frame) : 0.080
Stream size : 161 MiB (80%)
Writing library : x264 core 79
Encoding settings : cabac=1 / ref=3 / deblock=1:0:0 / analyse=0x3:0x113 / me=hex / subme=7 / psy=1 / psy_rd=1.0:0.0 / mixed_ref=1 / me_range=16 / chroma_me=1 / trellis=1 / 8x8dct=1 / cqm=0 / deadzone=21,11 / chroma_qp_offset=-2 / threads=24 / nr=0 / decimate=1 / mbaff=0 / constrained_intra=0 / bframes=3 / b_pyramid=0 / b_adapt=1 / b_bias=0 / direct=1 / wpredb=32 / wpredp=2 / keyint=250 / keyint_min=25 / scenecut=40 / rc_lookahead=40 / rc=abr / mbtree=1 / bitrate=560 / ratetol=7.1 / qcomp=0.60 / qpmin=10 / qpmax=51 / qpstep=4 / ip_ratio=1.41 / aq=1:1.00
Audio
ID : 2
Format : AAC
Format/Info : Advanced Audio Codec
Format profile : LC
Codec ID : 40
Duration : 43mn 14s
Bit rate mode : Variable
Bit rate : 128 Kbps
Channel(s) : 2 channels
Channel positions : Front: L R
Sampling rate : 44.1 KHz
Compression mode : Lossy
Delay relative to video : 40ms
Stream size : 39.6 MiB (20%)

_________________
Показать сообщения:    

Текущее время: Сегодня 07:26

Часовой пояс: GMT



Вы не можете начинать темы
Вы не можете отвечать на сообщения
Вы не можете редактировать свои сообщения
Вы не можете удалять свои сообщения
Вы не можете голосовать в опросах
Вы не можете прикреплять файлы к сообщениям
Вы не можете скачивать файлы