Продюсеры / The Producers (Сюзан Строман / Susan Stroman) [2005, мюзикл, комедия, BDRip 720p] 2x MVO + Sub Rus, Eng + Original Eng :: Ивановский Торрент трекер
Важное объявление!
У Нас Все раздачи мультитрекерные, при нуле пиров в релизах, можете смело вставать на закачку!
 
Автор Сообщение

димитри37

Стаж:
4 года 3 месяца
Сообщений:
1236

Репутация: 127

[+] [-]
Вне форума [Профиль] [ЛС]

Продюсеры / The Producers-
Страна: США
Студия: Brooksfilms, Columbia Pictures Corporation и Universal Pictures
Жанр: мюзикл, комедия
Год выпуска: 2005
Продолжительность: 02:14:24
Перевод 1: Профессиональный (многоголосый, закадровый) Видеосервис
Перевод 2: Профессиональный (многоголосый, закадровый)
Cубтитры: русские (DVD, notabenoid), английские
Оригинальная аудиодорожка: английская
Режиссер: Сюзан Строман / Susan Stroman
В ролях: Ума Турман, Мэл Брукс, Натан Лэйн , Мэттью Бродерик, Уилл Феррелл , Джон Ловитц
Описание: Нью-Йорк, 1959 год. Театральный продюсер Макс Бялысток, чье имя всего несколько лет назад гремело по всему миру и являлось синонимом успеха, погряз в неудачах и провалах, которые следуют один за другим.
Но случай сводит его с бывшим финансовым директором Лео Блумом, и они тут же изобретают «схему» — брать кредит под постановку заведомо провального шоу и присваивать непотраченное. И вот первый проект — «Молодые годы Адольфа Гитлера» в литературной обработке бывшего нациста Франца Либкина, режиссером которого будет богемный Роджер де Бри с постаревшей шведской секс-бомбой Уллой в главной роли. Осталось только дождаться реакции зрителей…

Тип релиза: BDRip 720p [ThD]
Контейнер: MKV
Видео: 1280x534 (2,40:1), 23,976 fps, x264 ~ 6743 kbps avg.
Аудио 1: 48 kHz, AC3 Dolby Digital, 3/2 (L,C,R,l,r) + LFE ch, 448 kbps (русская, Видеосервис)
Аудио 2: 48 kHz, AC3 Dolby Digital, 3/2 (L,C,R,l,r) + LFE ch, 320 kbps (русская)
Аудио 3: 48 kHz, AC3 Dolby Digital, 3/2 (L,C,R,l,r) + LFE ch, 640 kbps (английская)
Аудио 4: 48 kHz, Advanced Audio Codec, 2 ch, 107 kbps (Commentary)
Формат субтитров: softsub (SRT)
Чаптеры: есть

возраст: зрителям, достигшим 16 лет
рейтинг MPAA: детям до 13 лет просмотр не желателен

MediaInfo

ОбщееУникальный идентификатор : 208241819026362815245373207123684844383 (0x9CA9EA5DCAC786D19B74DCCFBEF5635F)Полное имя : The.Producers.2005.720p.BluRay.DD5.1.x264.mkvФормат : MatroskaВерсия формата : Version 2Размер файла : 7,88 ГбайтПродолжительность : 2 ч. 14 м.Общий поток : 8396 Кбит/секДата кодирования : UTC 2013-05-03 12:09:15Программа кодирования : mkvmerge v4.5.0 ('Speed of Light') сборка от Feb 1 2011 02:10:32Библиотека кодирования : libebml v1.2.0 + libmatroska v1.1.0
ВидеоИдентификатор : 1Формат : AVCФормат/Информация : Advanced Video CodecПрофиль формата : High@L4.1Параметр CABAC формата : ДаПараметр ReFrames формата : 12 кадровИдентификатор кодека : V_MPEG4/ISO/AVCПродолжительность : 2 ч. 14 м.Ширина : 1280 пикселейВысота : 534 пикселяСоотношение сторон : 2,40:1Частота кадров : 23,976 кадра/секЦветовое пространство : YUVСубдискретизация насыщенности : 4:2:0Битовая глубина : 8 битТип развёртки : ПрогрессивнаяЗаголовок : The.Producers.2005.720p.BluRay.DD5.1.x264-ThDБиблиотека кодирования : x264 core 128 r2216kMod 198a7eaНастройки программы : cabac=1 / ref=12 / deblock=1:-3:-3 / analyse=0x3:0x133 / me=umh / subme=9 / psy=1fade_compensate=0.00 / psy_rd=1.10:0.00 / mixed_ref=1 / me_range=64 / chroma_me=1 / trellis=2 / 8x8dct=1 / cqm=0 / deadzone=21,11fast_pskip=0 / chroma_qp_offset=-2 / threads=12 / lookahead_threads=2 / sliced_threads=0 / nr=0 / decimate=0 / interlaced=0bluray_compat=0 / constrained_intra=0 / bframes=9 / b_pyramid=2 / b_adapt=2 / b_bias=0 / direct=3 / weightb=1 / open_gop=0weightp=2 / keyint=250 / keyint_min=23 / scenecut=40 / intra_refresh=0 / rc=crf / mbtree=0 / crf=17.5000 / qcomp=0.85 / qpmin=0qpmax=69 / qpstep=4 / ip_ratio=1.25 / pb_ratio=1.15 / aq=2:0.85Язык : EnglishDefault : ДаForced : Нет
Аудио #1Идентификатор : 2Формат : AC-3Формат/Информация : Audio Coding 3Расширение режима : CM (complete main)Идентификатор кодека : A_AC3Продолжительность : 2 ч. 14 м.Вид битрейта : ПостоянныйБитрейт : 448 Кбит/секКаналы : 6 каналовРасположение каналов : Front: L C R, Side: L R, LFEЧастота : 48,0 КГцБитовая глубина : 16 битМетод сжатия : С потерямиРазмер потока : 431 Мбайт (5%)Заголовок : ac3 5.1 448 kbps VideoservisЯзык : RussianDefault : ДаForced : Нет
Аудио #2Идентификатор : 3Формат : AC-3Формат/Информация : Audio Coding 3Расширение режима : CM (complete main)Идентификатор кодека : A_AC3Продолжительность : 2 ч. 14 м.Вид битрейта : ПостоянныйБитрейт : 320 Кбит/секКаналы : 6 каналовРасположение каналов : Front: L C R, Side: L R, LFEЧастота : 48,0 КГцБитовая глубина : 16 битМетод сжатия : С потерямиРазмер потока : 308 Мбайт (4%)Заголовок : ac3 5.1 320 kbpsЯзык : RussianDefault : НетForced : Нет
Аудио #3Идентификатор : 4Формат : AC-3Формат/Информация : Audio Coding 3Расширение режима : CM (complete main)Идентификатор кодека : A_AC3Продолжительность : 2 ч. 14 м.Вид битрейта : ПостоянныйБитрейт : 640 Кбит/секКаналы : 6 каналовРасположение каналов : Front: L C R, Side: L R, LFEЧастота : 48,0 КГцБитовая глубина : 16 битМетод сжатия : С потерямиРазмер потока : 615 Мбайт (8%)Заголовок : ac3 5.1 640 kbpsЯзык : EnglishDefault : НетForced : Нет
Аудио #4Идентификатор : 5Формат : AACФормат/Информация : Advanced Audio CodecПрофиль формата : LCИдентификатор кодека : A_AACПродолжительность : 2 ч. 14 м.Каналы : 2 каналаРасположение каналов : Front: L RЧастота : 48,0 КГцМетод сжатия : С потерямиЗадержка видео : 9 мс.Заголовок : CommentaryЯзык : EnglishDefault : НетForced : Нет
Текст #1Идентификатор : 6Формат : UTF-8Идентификатор кодека : S_TEXT/UTF8Идентификатор кодека/Информация : UTF-8 Plain TextЗаголовок : DVDЯзык : RussianDefault : НетForced : Нет
Текст #2Идентификатор : 7Формат : UTF-8Идентификатор кодека : S_TEXT/UTF8Идентификатор кодека/Информация : UTF-8 Plain TextЗаголовок : notabenoidЯзык : RussianDefault : НетForced : Нет
Текст #3Идентификатор : 8Формат : UTF-8Идентификатор кодека : S_TEXT/UTF8Идентификатор кодека/Информация : UTF-8 Plain TextЗаголовок : Sub-fullЯзык : EnglishDefault : НетForced : Нет
Меню00:00:00.000 : en:Break a Leg00:08:45.942 : en:"Der Guten Tag Hop-Clop"00:17:59.704 : en:Finding the Flop00:22:39.358 : en:"Springtime for Hitler"00:32:35.871 : en:Open Auditions00:35:51.358 : en:"That Face"00:44:54.108 : en:"Along Came Bialy"00:56:21.503 : en:"When You Got It, Flaunt It"01:05:29.592 : en:"Keep It Gay"01:11:49.972 : en:Revolting Stench of Self-Esteem01:19:50.369 : en:Hold Me / Touch Me01:30:48.276 : en:Creative Accounting01:38:53.553 : en:"We Can Do It!"01:48:31.046 : en:"I Wanna Be a Producer"01:54:33.241 : en:Opening Night02:06:18.905 : en:Ulla-La

Награды

Видеоряд от ThD

RLS iNFO:
RELEASE NAME..: The Producers 2005 720p BluRay DD5.1 x264-ThD RELEASE SIZE..: 7,16 Gb RUNTIME.......: 2h 14m 24s VIDEO CODEC...: x264, CRF , L4.1 FRAMERATE.....: 23,976 fps BITRATE.......: 6743 Kbps RESOLUTION....: 1280x534 AUDIO.........: English AC3 5.1 @ 640 Kbps AUDIO 2.......: English AAC 2.0 @ 107 Kbps /Commentary/ SUBTITLES.....: English CHAPTERS......: yes /named/ SOURCE........: The Producers 2005 1080p JPN Blu-ray MPEG-2 LPCM 5.1 iMDB..........: http://www.imdb.com/title/tt0395251/
NOTES.........: Dirty lines fixed.
x264 iNFO:
frame I:1311 Avg QP:16.16 size:107822 frame P:38557 Avg QP:17.42 size: 56276 frame B:153476 Avg QP:18.38 size: 30115 consecutive B-frames: 1.7% 1.5% 4.3% 15.9% 13.7% 51.0% 5.9% 1.9% 2.4% 1.7%
encoded 193344 frames, 10.36 fps, 6878.03 kb/s, duration 5:10:59.15

Сравнение

Сравнение с этим релизомSource ThD hV(Scene)




Скриншоты


Показать сообщения:    

Текущее время: Сегодня 00:22

Часовой пояс: GMT



Вы не можете начинать темы
Вы не можете отвечать на сообщения
Вы не можете редактировать свои сообщения
Вы не можете удалять свои сообщения
Вы не можете голосовать в опросах
Вы не можете прикреплять файлы к сообщениям
Вы не можете скачивать файлы