Важное объявление!
У Нас Все раздачи мультитрекерные, при нуле пиров в релизах, можете смело вставать на закачку!
Статистика раздачи
Размер:     |    Зарегистрирован:     |    Скачан:     |   
Нет
 
     
 
 
Автор Сообщение

димитри37

Стаж:
4 года 4 месяца
Сообщений:
1236

Репутация: 127

[+] [-]
Вне форума [Профиль] [ЛС]

Продюсеры / Весна для Гитлера
Название:Продюсеры / Весна для Гитлера
Оригинальное название:The Producers
Страна: США
Жанр: комедия
Год выпуска: 1968
Продолжительность: 01:29:22
Перевод 1: Профессиональный (многоголосый закадровый) - 5 канал
Перевод 2: Профессиональный (многоголосый закадровый)
Оригинальная дорожка: английский
Cубтитры: русские
Режиссер: Мэл Брукс / Mel Brooks
В ролях: Зеро Мостел, Джин Уайлдер, Дик Шоун, Кеннет Марс, Ли Мередит, Кристофер Хьюитт, Андреас Вуцинас, Эстель Уинвуд, Рене Тейлор, Дэвид Пэч
Описание: Неудачливый бродвейский театральный продюсер уже довольно долгое время перебивается «с хлеба на квас», старается срубить «копейку» даже в самых невероятных ситуациях… хотя, по большей части, получается так себе.
Однажды на его горизонте появляется затюканный и невзрачный бухгалтеришка, который подкидывает сумасшедшую на первый взгляд идею, реализация которой позволит им перестать думать о будущем в мрачных, апокалиптических тонах…

Качество видео: BDRip
Формат видео: AVI
Видео: XviD, 720x368 (1.96:1), 23.976 fps, 1923 kbps avg, 0.30 bit/pixel
Аудио 1: Rus MVO (5 канал)- AC3 Dolby Digital, 48 kHz, 192.00 kbps, 2/0 (L,R) ch
Аудио 2: Rus MVO - AC3 Dolby Digital, 48 kHz, 192.00 kbps, 2/0 (L,R) ch
Аудио 3: Original (RNG) - AC3 Dolby Digital, 48 kHz, 448 kbps, 3/2 (L,C,R,l,r) + LFE ch (отдельным файлом)
Субтитры: Русские - softsub (SRT), (кодировка - ANSI) (отдельным файлом)

Скриншоты

MediaInfo

Код:
Полное имя                       : Prodyusery.1968.XviD.BDRip.MetionInka\Prodyusery.1968.XviD.BDRip.MetionInka.avi
Формат                           : AVI
Формат/Информация                : Audio Video Interleave
Размер файла                     : 1,45 Гбайт
Продолжительность                : 1 ч. 29 м.
Общий поток                      : 2322 Кбит/сек
Название фильма                  : Prodyusery.1968.XviD.BDRip.MetionInka
Режиссёр                         : rip MetionInka
Жанр                             : Comedy
Программа кодирования            : VirtualDubMod 1.5.10.3 | www.virtualdub-fr.org || (build 2550/release)
Формат оригинала/Имя             : The Producers/Mel Brooks/1968
Правообладатель                  : rutracker.org
Примечание                       : 2xMVO [5 ch SPB] + [?]
Видео
Идентификатор                    : 0
Формат                           : MPEG-4 Visual
Профиль формата                  : Advanced Simple@L5
Параметр BVOP формата            : 2
Параметр QPel формата            : Нет
Параметр GMC формата             : Без точки перехода
Параметр матрицы формата         : Выборочная
Идентификатор кодека             : XVID
Идентификатор кодека/Подсказка   : XviD
Продолжительность                : 1 ч. 29 м.
Битрейт                          : 1924 Кбит/сек
Ширина                           : 720 пикселей
Высота                           : 368 пикселей
Соотношение сторон               : 1,957
Частота кадров                   : 23,976 кадра/сек
Цветовое пространство            : YUV
Субдискретизация насыщенности    : 4:2:0
Битовая глубина                  : 8 бит
Тип развёртки                    : Прогрессивная
Метод сжатия                     : С потерями
Бит/(Пиксели*Кадры)              : 0.303
Размер потока                    : 1,20 Гбайт (83%)
Библиотека кодирования           : XviD 73
Аудио #1
Идентификатор                    : 1
Формат                           : AC-3
Формат/Информация                : Audio Coding 3
Расширение режима                : CM (complete main)
Идентификатор кодека             : 2000
Продолжительность                : 1 ч. 29 м.
Вид битрейта                     : Постоянный
Битрейт                          : 192 Кбит/сек
Каналы                           : 2 канала
Расположение каналов             : Front: L R
Частота                          : 48,0 КГц
Битовая глубина                  : 16 бит
Метод сжатия                     : С потерями
Размер потока                    : 123 Мбайт (8%)
Выравнивание                     : Разделение по промежуткам
Продолжительность промежутка     : 42  мс. (1,00 видеокадр)
Время предзагрузки промежутка    : 500  мс.
Аудио #2
Идентификатор                    : 2
Формат                           : AC-3
Формат/Информация                : Audio Coding 3
Расширение режима                : CM (complete main)
Идентификатор кодека             : 2000
Продолжительность                : 1 ч. 29 м.
Вид битрейта                     : Постоянный
Битрейт                          : 192 Кбит/сек
Каналы                           : 2 канала
Расположение каналов             : Front: L R
Частота                          : 48,0 КГц
Битовая глубина                  : 16 бит
Метод сжатия                     : С потерями
Размер потока                    : 123 Мбайт (8%)
Выравнивание                     : Разделение по промежуткам
Продолжительность промежутка     : 42  мс. (1,00 видеокадр)
Время предзагрузки промежутка    : 500  мс.

Дополнительная информация

Оба варианта MVO не представлены в разделе
Показать сообщения:    

Текущее время: Сегодня 08:53

Часовой пояс: GMT



Вы не можете начинать темы
Вы не можете отвечать на сообщения
Вы не можете редактировать свои сообщения
Вы не можете удалять свои сообщения
Вы не можете голосовать в опросах
Вы не можете прикреплять файлы к сообщениям
Вы не можете скачивать файлы