Важное объявление!
У Нас Все раздачи мультитрекерные, при нуле пиров в релизах, можете смело вставать на закачку!
 
Автор Сообщение

HUNTER

Стаж:
4 года 8 месяцев
Сообщений:
62003

Репутация: 101

[+] [-]
Вне форума [Профиль] [ЛС]

Продюсеры / Весна для Гитлера / The Producers
Слоган: «Hollywood Never Faced a Zanier Zero Hour!»
Страна: США
Студия: Embassy Pictures, Springtime Productions, U-M Productions, Crossbow Productions
Жанр: мюзикл, комедия
Год выпуска: 1967 (1968 По версии "КиноПоиск"-а)
Продолжительность: 01:29:22
Перевод 1: Профессиональный (многоголосый закадровый) - 5 канал СПб.
Перевод 2: Профессиональный (многоголосый закадровый) - SomeWax
Перевод 3: Профессиональный (многоголосый закадровый)
Перевод 4: Авторский (одноголосый закадровый) - Алексей Михалёв
Перевод 5: Авторский (одноголосый закадровый) - Леонид Володарский
Перевод 6: Авторский (одноголосый закадровый) - Григорий Либергал
Cубтитры: русские(На непереведённый фрагмент), русские(NightChildBarbie), английские(Blu-Ray), английские[CC](DVD9_R1)
Оригинальная аудиодорожка: английский
Режиссер: Мэл Брукс / Mel Brooks
В ролях: Зеро Мостел, Джин Уайлдер, Дик Шоун, Кеннет Марс, Ли Мередит, Кристофер Хьюитт, Андреас Вуцинас, Эстель Уинвуд, Рене Тейлор, Дэвид Пэч ...
Описание: Неудачливый бродвейский театральный продюсер уже довольно долгое время перебивается «с хлеба на квас», старается срубить «копейку» даже в самых невероятных ситуациях… хотя, по большей части, получается так себе.
Однажды на его горизонте появляется затюканный и невзрачный бухгалтеришка, который подкидывает сумасшедшую на первый взгляд идею, реализация которой позволит им перестать думать о будущем в мрачных, апокалиптических тонах…
Доп. информация: Исходники The Producers 1967 720p BluRay DD5.1 x264-TayTO, The.Producers.1967.1080p.CE.BluRay.x264-BARC0DE_ найдены в сети.-- --Спасибо за рус. дорожку (Леонид Володарский) [url=viewtopic.php?t=4569584]rulle1[/url]Спасибо за рус. дорожку (Алексей Михалёв) [url=viewtopic.php?t=4679503]ochkarik1[/url]Спасибо за рус. дорожки (3хMVO и Григорий Либергал) [url=viewtopic.php?t=4498483]Тарантиныч[/url]-
-

Об исходнике --- The Producers 1967 720p BluRay DD5.1 x264-TayTO

MOVIE iNFO
GENRE.........: Comedy
IMDB RATING...: 7.6 (29,050 votes)
LINK..........: http://www.imdb.com/title/tt0063462
TRAILER.......: http://www.youtube.com/watch?v=VrFSOX7O0eQ
RELEASE iNFO
RELEASE NAME..: The Producers 1967 720p BluRay DD5.1 x264-TayTO
ENCODED DATE..: UTC 2013-07-29 05:23:48
RELEASE SIZE..: 8.43 GiB
RUNTIME.......: 1h 29mn
VIDEO CODEC...: x264, 2Pass, L4.1
FRAMERATE.....: 23.976 fps
BITRATE.......: 12.9 Mbps
RESOLUTION....: 1280x692
AUDIO.........: English AC3 5.1@640 Kbps
CHAPTERS......: Yes
SUBTITLES.....: English,Spanish,French
SOURCE........: The Producers 1967 1080p Blu-ray AVC DTS-HD MA 5.1 (Thanks violator99!)
CONTACT.......: TayTO.Group@gmail.com
Encoder.......: BodoiCuHo@TayTO
NOTES
Special thanks for all TayTO members and my friends!
x264 iNFO
x264 [info]: frame I:686 Avg QP:16.76 size:152570
x264 [info]: frame P:23433 Avg QP:17.97 size: 91214
x264 [info]: frame B:104450 Avg QP:20.36 size: 61120
x264 [info]: consecutive B-frames: 0.7% 1.0% 2.1% 19.8% 10.8% 36.3% 12.7% 5.6% 4.9% 2.9% 3.0%
encoded 128569 frames, 3.51 fps, 12869.03 kb/s

Об исходнике --- The.Producers.1967.1080p.CE.BluRay.x264-BARC0DE_

_|_|_| _|_| _|_|_| _|_|_| _| _|_|_| _|_|_|_|_| _| _| _| _| _| _| _| _| _| _| _|_|_|_| _|_|_|_| _|_|_| _| _| _| _| _| _|_|_|_| _| _| _| _| _| _| _| _| _| _| _|_|_|_| _| _| _| _| _|_|_| _| _|_|_| _|_|_|_|
The.Producers.1967.1080p.CE.BluRay.x264-BARC0DE
Source : BluRay
IMDB : http://www.imdb.com/title/tt0063462/
Genre : Comedy, Musical
Format : Matroska at 11.5 MbpsLength : 7.19 GiB for 1h 29mn 22s 411ms
Video #0 : AVC at 10 000 KbpsAspect : 1920 x 1040 (1.846) at 23.962 fps
Audio #0 : DTS at 1 509 KbpsInfos : 6 channels, 48.0 KHzLanguage : en
Text #0 : PGSLanguage : en
Text #1 : PGSLanguage : es
Text #2 : PGSLanguage : fr
Enjoy!

-
-The Producers_(1967)_720p BDRip_Sample_.mkv
В сэмпле присутствует и тот самый непереведённый(на них сделаны субтитры) фрагмент.
Во всех дорожках кроме MVO данный фрагмент неозвучен.
-
-

Знаете ли вы, что...


-
-

Награды


-
-

...из книги «3500 кинорецензий»


-
-Тип релиза: BDRip 720p
Контейнер: MKV
Видео: x264, 1280x692, 16:9, 23.976 fps, 12.9 Mb/s, Progressive, 0.607 Bits/(Pixel*Frame)
Аудио 1: 48 kHz, AC3 Dolby Digital, 2/0 (L,R) ch, ~ 192 kbps, Русский - MVO 5 канал СПб.
Аудио 2: 48 kHz, AC3 Dolby Digital, 2/0 (L,R) ch, ~ 192 kbps, Русский - MVO SomeWax
Аудио 3: 48 kHz, AC3 Dolby Digital, 2/0 (L,R) ch, ~ 192 kbps, Русский - MVO
Аудио 4: 48 kHz, AC3 Dolby Digital, 2/0 (L,R) ch, ~ 192 kbps, Русский - AVO Алексей Михалёв
Аудио 5: 48 kHz, AC3 Dolby Digital, 2/0 (L,R) ch, ~ 192 kbps, Русский - AVO Леонид Володарский
Аудио 6: 48 kHz, AC3 Dolby Digital, 3/2 (L,C,R,l,r) + LFE ch, ~448 kbps, Русский - AVO Григорий Либергал
Аудио 7: 48 kHz, DTS, 3/2 (L,C,R,SL,SR)+LFE ch, 24 bits, ~1 509 Kbps, Английский
Формат субтитров: softsub (SRT)

MediaInfo

General
Unique ID : 233314273327997134646786622128531101005 (0xAF86B1CDBC71325896EFB1760AA6D54D)
Complete name : I:\111\The Producers_(1967)_720p BDRip_.mkv
Format : Matroska
Format version : Version 4 / Version 2
File size : 9.86 GiB
Duration : 1 h 29 min
Overall bit rate : 15.8 Mb/s
Encoded date : UTC 2016-09-27 07:21:39
Writing application : mkvmerge v8.6.1 ('Flying') 64bit
Writing library : libebml v1.3.3 + libmatroska v1.4.4
Video
ID : 1
Format : AVC
Format/Info : Advanced Video Codec
Format profile : High@L4.1
Format settings, CABAC : Yes
Format settings, ReFrames : 9 frames
Codec ID : V_MPEG4/ISO/AVC
Duration : 1 h 29 min
Bit rate : 12.9 Mb/s
Width : 1 280 pixels
Height : 692 pixels
Display aspect ratio : 1.85:1
Frame rate mode : Constant
Frame rate : 23.976 (24000/1001) FPS
Color space : YUV
Chroma subsampling : 4:2:0
Bit depth : 8 bits
Scan type : Progressive
Bits/(Pixel*Frame) : 0.607
Stream size : 7.84 GiB (80%)
Title : The Producers (1967)_720p BDRip_[Muxed_by_rjhlb777]
Writing library : x264 core 135 r2345 f0c1c53
Encoding settings : cabac=1 / ref=9 / deblock=1:-3:-3 / analyse=0x3:0x133 / me=tesa / subme=11 / psy=1 / psy_rd=1.10:0.00 / mixed_ref=1 / me_range=16 / chroma_me=1 / trellis=2 / 8x8dct=1 / cqm=0 / deadzone=21,11 / fast_pskip=0 / chroma_qp_offset=-2 / threads=12 / lookahead_threads=3 / sliced_threads=0 / nr=0 / decimate=1 / interlaced=0 / bluray_compat=0 / constrained_intra=0 / bframes=10 / b_pyramid=2 / b_adapt=2 / b_bias=0 / direct=3 / weightb=1 / open_gop=0 / weightp=2 / keyint=250 / keyint_min=23 / scenecut=40 / intra_refresh=0 / rc=abr / mbtree=0 / bitrate=12898 / ratetol=1.0 / qcomp=0.70 / qpmin=0 / qpmax=69 / qpstep=4 / ip_ratio=1.40 / pb_ratio=1.30 / aq=1:0.65
Language : English
Default : Yes
Forced : No
Color range : Limited
Matrix coefficients : BT.709
Audio #1
ID : 2
Format : AC-3
Format/Info : Audio Coding 3
Mode extension : CM (complete main)
Format settings, Endianness : Big
Codec ID : A_AC3
Duration : 1 h 29 min
Bit rate mode : Constant
Bit rate : 192 kb/s
Channel(s) : 2 channels
Channel positions : Front: L R
Sampling rate : 48.0 kHz
Frame rate : 31.250 FPS (1536 spf)
Compression mode : Lossy
Stream size : 123 MiB (1%)
Title : MVO (5-й Канал СПб.)
Language : Russian
Default : Yes
Forced : No
Audio #2
ID : 3
Format : AC-3
Format/Info : Audio Coding 3
Mode extension : CM (complete main)
Format settings, Endianness : Big
Codec ID : A_AC3
Duration : 1 h 29 min
Bit rate mode : Constant
Bit rate : 192 kb/s
Channel(s) : 2 channels
Channel positions : Front: L R
Sampling rate : 48.0 kHz
Frame rate : 31.250 FPS (1536 spf)
Compression mode : Lossy
Stream size : 123 MiB (1%)
Title : MVO (SomeWax)
Language : Russian
Default : No
Forced : No
Audio #3
ID : 4
Format : AC-3
Format/Info : Audio Coding 3
Mode extension : CM (complete main)
Format settings, Endianness : Big
Codec ID : A_AC3
Duration : 1 h 29 min
Bit rate mode : Constant
Bit rate : 192 kb/s
Channel(s) : 2 channels
Channel positions : Front: L R
Sampling rate : 48.0 kHz
Frame rate : 31.250 FPS (1536 spf)
Compression mode : Lossy
Stream size : 123 MiB (1%)
Title : MVO
Language : Russian
Default : No
Forced : No
Audio #4
ID : 5
Format : AC-3
Format/Info : Audio Coding 3
Mode extension : CM (complete main)
Format settings, Endianness : Big
Codec ID : A_AC3
Duration : 1 h 29 min
Bit rate mode : Constant
Bit rate : 192 kb/s
Channel(s) : 2 channels
Channel positions : Front: L R
Sampling rate : 48.0 kHz
Frame rate : 31.250 FPS (1536 spf)
Compression mode : Lossy
Stream size : 123 MiB (1%)
Title : AVO (Алексей Михалёв)
Language : Russian
Default : No
Forced : No
Audio #5
ID : 6
Format : AC-3
Format/Info : Audio Coding 3
Mode extension : CM (complete main)
Format settings, Endianness : Big
Codec ID : A_AC3
Duration : 1 h 29 min
Bit rate mode : Constant
Bit rate : 192 kb/s
Channel(s) : 2 channels
Channel positions : Front: L R
Sampling rate : 48.0 kHz
Frame rate : 31.250 FPS (1536 spf)
Compression mode : Lossy
Stream size : 123 MiB (1%)
Title : AVO (Леонид Володарский)
Language : Russian
Default : No
Forced : No
Audio #6
ID : 7
Format : AC-3
Format/Info : Audio Coding 3
Mode extension : CM (complete main)
Format settings, Endianness : Big
Codec ID : A_AC3
Duration : 1 h 29 min
Bit rate mode : Constant
Bit rate : 448 kb/s
Channel(s) : 6 channels
Channel positions : Front: L C R, Side: L R, LFE
Sampling rate : 48.0 kHz
Frame rate : 31.250 FPS (1536 spf)
Compression mode : Lossy
Stream size : 286 MiB (3%)
Title : AVO (Григорий Либергал)
Language : Russian
Default : No
Forced : No
Audio #7
ID : 8
Format : DTS
Format/Info : Digital Theater Systems
Mode : 16
Format settings, Endianness : Big
Codec ID : A_DTS
Duration : 1 h 29 min
Bit rate mode : Constant
Bit rate : 1 509 kb/s
Channel(s) : 6 channels
Channel positions : Front: L C R, Side: L R, LFE
Sampling rate : 48.0 kHz
Frame rate : 93.750 FPS (512 spf)
Bit depth : 24 bits
Compression mode : Lossy
Stream size : 965 MiB (10%)
Title : Original
Language : English
Default : No
Forced : No
Text #1
ID : 9
Format : UTF-8
Codec ID : S_TEXT/UTF8
Codec ID/Info : UTF-8 Plain Text
Title : RUS (For Untanslated Fragment)
Language : Russian
Default : Yes
Forced : No
Text #2
ID : 10
Format : UTF-8
Codec ID : S_TEXT/UTF8
Codec ID/Info : UTF-8 Plain Text
Title : RUS (NightChildBarbie)
Language : Russian
Default : No
Forced : No
Text #3
ID : 11
Format : UTF-8
Codec ID : S_TEXT/UTF8
Codec ID/Info : UTF-8 Plain Text
Title : ENG (Blu-Ray)
Language : English
Default : No
Forced : No
Text #4
ID : 12
Format : UTF-8
Codec ID : S_TEXT/UTF8
Codec ID/Info : UTF-8 Plain Text
Title : ENG [CC] (DVD9_R1)
Language : English
Default : No
Forced : No
Menu
00:00:00.000 : en:Chapter 01
00:10:17.200 : en:Chapter 02
00:21:51.852 : en:Chapter 03
00:25:55.012 : en:Chapter 04
00:34:46.751 : en:Chapter 05
00:43:14.675 : en:Chapter 06
00:49:40.895 : en:Chapter 07
00:57:18.518 : en:Chapter 08
01:13:41.500 : en:Chapter 09
01:23:20.329 : en:Chapter 10

-
-
-

Доп.


_________________
Показать сообщения:    

Текущее время: Сегодня 12:43

Часовой пояс: GMT



Вы не можете начинать темы
Вы не можете отвечать на сообщения
Вы не можете редактировать свои сообщения
Вы не можете удалять свои сообщения
Вы не можете голосовать в опросах
Вы не можете прикреплять файлы к сообщениям
Вы не можете скачивать файлы
Наши партнеры: интернет магазин Ивановского трикотажа textilla.ru