Ивановский Торрент трекер
Яндекс.Погода
 

[Цитировать]
HUNTER

Продано за долги / 4Closed - Год выпуска: 2013
Страна: США
Жанр: триллер, драма
Продолжительность: 01:30:54
Перевод: Любительский (одноголосый) [den904]
Субтитры: English -В ролях: Джеймс Дентон, Кристина ДеРоса, Джейми Кеннеди, Марли Мэтлин, Пол Сорвино
Режиссёр: Ник Лион - -Когда молодая семья покупает себе новый дом на рынке вторичного жилья, то сразу же после новоселья старый владелец начинает терроризировать их... Он не остановится ни перед чем, чтобы вернуть свой дом обратно!
-Качество: WEB-DL 720p
Формат: MKV
Видео кодек: AVC
Аудио кодек: AC-3
Видео: AVC, 1280x720, 4026 Кбит/сек, 23.976 кадр/сек
Аудио 1: AC-3, 192 Кбит/сек, 2 канала(ов), 48,0 КГц (Russian)
Аудио 2: AC-3, 384 Кбит/сек, 6 канала(ов), 48,0 КГц (English)-

Рейтинг:

Рейтинг:

MediaInfo:

General
Unique ID : 240819848306315630331776029846769591173 (0xB52C37387B515E09A621CB686ED96385)
Complete name : C:\Users\Fr1sk\Desktop\Рипы\4Closed.2013.WEB-DL.720p.CINEMANIA.mkv
Format : Matroska
Format version : Version 4 / Version 2
File size : 2.98 GiB
Duration : 1h 30mn
Overall bit rate : 4 695 Kbps
Movie name : Release Group CINEMANIA
Encoded date : UTC 2013-11-26 16:20:09
Writing application : mkvmerge v6.5.0 ('Isn't she lovely') built on Oct 20 2013 12:50:05
Writing library : libebml v1.3.0 + libmatroska v1.4.1
Video
ID : 1
Format : AVC
Format/Info : Advanced Video Codec
Format profile : High@L3.1
Format settings, CABAC : No
Format settings, ReFrames : 2 frames
Codec ID : V_MPEG4/ISO/AVC
Duration : 1h 30mn
Bit rate : 4 026 Kbps
Width : 1 280 pixels
Height : 720 pixels
Display aspect ratio : 16:9
Frame rate mode : Constant
Frame rate : 23.976 fps
Color space : YUV
Chroma subsampling : 4:2:0
Bit depth : 8 bits
Scan type : Progressive
Bits/(Pixel*Frame) : 0.182
Stream size : 2.56 GiB (86%)
Title : Release Group CINEMANIA
Language : English
Default : Yes
Forced : No
Color primaries : BT.709
Transfer characteristics : BT.709
Matrix coefficients : BT.709
Audio #1
ID : 2
Format : AC-3
Format/Info : Audio Coding 3
Mode extension : CM (complete main)
Format settings, Endianness : Big
Codec ID : A_AC3
Duration : 1h 30mn
Bit rate mode : Constant
Bit rate : 192 Kbps
Channel(s) : 2 channels
Channel positions : Front: L R
Sampling rate : 48.0 KHz
Bit depth : 16 bits
Compression mode : Lossy
Stream size : 125 MiB (4%)
Title : den904
Language : Russian
Default : Yes
Forced : Yes
Audio #2
ID : 3
Format : AC-3
Format/Info : Audio Coding 3
Mode extension : CM (complete main)
Format settings, Endianness : Big
Codec ID : A_AC3
Duration : 1h 30mn
Bit rate mode : Constant
Bit rate : 384 Kbps
Channel(s) : 6 channels
Channel positions : Front: L C R, Side: L R, LFE
Sampling rate : 48.0 KHz
Bit depth : 16 bits
Compression mode : Lossy
Stream size : 250 MiB (8%)
Language : English
Default : No
Forced : No
Text
ID : 4
Format : UTF-8
Codec ID : S_TEXT/UTF8
Codec ID/Info : UTF-8 Plain Text
Language : English
Default : No
Forced : No
Menu
00:00:00.000 : en:Chapter 1
00:10:02.000 : en:Chapter 2
00:20:34.000 : en:Chapter 3
00:31:48.000 : en:Chapter 4
00:41:19.000 : en:Chapter 5
00:52:09.000 : en:Chapter 6
01:00:09.000 : en:Chapter 7
01:11:33.000 : en:Chapter 8
01:19:11.000 : en:Chapter 9
01:28:01.000 : en:Chapter 10

Скриншоты:

Показать сообщения:    

Текущее время: 21-Сен 07:39

Часовой пояс: UTC - 1


Вы не можете начинать темы
Вы не можете отвечать на сообщения
Вы не можете редактировать свои сообщения
Вы не можете удалять свои сообщения
Вы не можете голосовать в опросах
Вы не можете прикреплять файлы к сообщениям
Вы не можете скачивать файлы

!ВНИМАНИЕ!
Сайт не предоставляет электронные версии произведений, а занимается лишь коллекционированием и каталогизацией ссылок, присылаемых и публикуемых на форуме нашими читателями. Если вы являетесь правообладателем какого-либо представленного материала и не желаете, чтобы ссылка на него находилась в нашем каталоге, свяжитесь с нами, и мы незамедлительно удалим ее. Файлы для обмена на трекере предоставлены пользователями сайта, и администрация не несет ответственности за их содержание. Просьба не заливать файлы, защищенные авторскими правами, а также файлы нелегального содержания!