Важное объявление!
У Нас Все раздачи мультитрекерные, при нуле пиров в релизах, можете смело вставать на закачку!
 
Автор Сообщение

HUNTER

Стаж:
4 года 11 месяцев
Сообщений:
66027

Репутация: 101

[+] [-]
Вне форума [Профиль] [ЛС]

Продается кошка -
Год выпуска: 2012
Страна: Россия
Жанр: мелодрама
Продолжительность: 01:44:42
Перевод: Оригинал-Режиссер: Иван Криворучко
Сценарий: Владимир Игнатьев, Эдина Умерова, Елена Рыбакова
Продюсер: Александр Кушаев, Владимир Игнатьев, Юлия Ерешко-В ролях: Виктория Полторак , Андрей Биланов , Аня Зайцева (Алина), Андрей Карако , Денис Дудинский , Светлана Никифорова , Евгений Ивкович , Олег Коц , Илья Сакуро-Финевич , Василий Бойдак
-Описание: Катерина — умна и амбициозна. Она всегда знает, чего хочет, и весь смысл жизни видит только в работе. Однажды домой к Кате приходит детдомовская воспитанница Алина. «Это у вас продается кошка?» — спрашивает девочка. «Нет у нас никаких кошек», — недоумевает Катя. На самом деле, Алина хитрит. Она уверена что бизнес-леди — ее мама. Катерина, объясняет, что прошлые хозяева квартиры давно тут не живут, но сирота не отступает. Пытаясь избавиться от неожиданной подопечной, Катя берется разыскать ее настоящих родителей, но со временем понимает, что привязалась к девочке, и уже не может с нею расстаться.Эта пронзительная и светлая история будет интересна как взрослой аудитории, так и подросткам.-Премьера (РФ): 1 декабря 2012
Рейтинг:-Качество: SATRip
Формат: AVI
Видео кодек: XviD
Аудио кодеk: MP3
Видео: 640x368 (1.74:1), 25 fps, XviD build 64 ~800 kbps avg, 0.14 bit/pixel
Аудио: Аудио #1: 48 kHz, MPEG Layer 3, 2 ch, ~128.00 kbps avg
-

МедиаИнфо

Код: copyText_writeLink('this.parentNode.parentNode.nextSibling.nextSibling'); General
Complete name : Prodaetsya.koshka.700.2012.SATRip.avi
Format : AVI
Format/Info : Audio Video Interleave
File size : 701 MiB
Duration : 1h 44mn
Overall bit rate : 936 Kbps
Writing application : VirtualDubMod 1.5.4.1 (build 2178/release)
Writing library : VirtualDubMod build 2178/release
Video
ID : 0
Format : MPEG-4 Visual
Format profile : Advanced Simple@L5
Format settings, BVOP : Yes
Format settings, QPel : No
Format settings, GMC : No warppoints
Format settings, Matrix : Custom
Codec ID : XVID
Codec ID/Hint : XviD
Duration : 1h 44mn
Bit rate : 800 Kbps
Width : 640 pixels
Height : 368 pixels
Display aspect ratio : 16:9
Frame rate : 25.000 fps
Color space : YUV
Chroma subsampling : 4:2:0
Bit depth : 8 bits
Scan type : Progressive
Bits/(Pixel*Frame) : 0.136
Stream size : 599 MiB (86%)
Writing library : XviD 64
Audio
ID : 1
Format : MPEG Audio
Format version : Version 1
Format profile : Layer 3
Mode : Joint stereo
Mode extension : MS Stereo
Codec ID : 55
Codec ID/Hint : MP3
Duration : 1h 44mn
Bit rate mode : Constant
Bit rate : 128 Kbps
Channel(s) : 2 channels
Sampling rate : 48.0 KHz
Stream size : 95.9 MiB (14%)
Alignment : Aligned on interleaves
Interleave, duration : 80 ms (2.00 video frames)
Interleave, preload duration : 504 ms
Writing library : LAME3.98r
Encoding settings : -m j -V 4 -q 2 -lowpass 17 -b 128
-
- -

_________________
Показать сообщения:    

Текущее время: Сегодня 17:47

Часовой пояс: GMT



Вы не можете начинать темы
Вы не можете отвечать на сообщения
Вы не можете редактировать свои сообщения
Вы не можете удалять свои сообщения
Вы не можете голосовать в опросах
Вы не можете прикреплять файлы к сообщениям
Вы не можете скачивать файлы