Ивановский Торрент трекер
Яндекс.Погода
 

[Цитировать]
HUNTER

Программа / The Program
Страна: США
Студия: Samuel Goldwyn Company, The, Touchstone Pictures
Жанр: драма, спорт
Год выпуска: 1993
Продолжительность: 01:49:45
Перевод: Профессиональный (двухголосый закадровый) НТВ+
Cубтитры: нет
Оригинальная аудиодорожка: нет
Режиссер: Дэвид С. Ворд / David S. Ward
В ролях: Джеймс Каан, Хелли Берри, Омар Эппс, Крейг Шеффер, Кристи Свонсон, Абрахам Бенруби, Дуан Дэвис, Джон Пеннелл, Джои Лоурен Адамс, Дж.С. Куинн
Описание: Фильм описывает игровой сезон университетской команды по американскому футболу ESU Timberwolves. Новый тренер команды - Сэм Винтерс (Джеймс Каан), второй год подряд упускает шанс попасть в финал кубка университетской лиги. На него давят болельщики, пресса и жители городка, где тренируется команда. Следующий сезон не должен повториться так же неудачно. Но получиться ли это? Особенно если некоторые игроки, ключевых позиций, начинают злоупотреблять наркотиками, стероидами и алкоголем. Яркая и оторванная университетская жизнь мешает сосредоточиться на играх. Тренер проводит некоторую селекционную работу по набору новых талантливых игроков и это начинает давать свои плоды...Фильм насыщен очень красивыми игровыми моментами и драматическими событиями, как на поле, так и в жизни героев этой команды.

IMDB
Тип релиза: HDTV 1080i
Контейнер: TS
Видео: AVC 1920x1080 (16:9) 25.0fps Bit rate 7514Kbps
Аудио: MP2 48.0KHz 2ch 192 Kbps rus dvo

MediaInfo

Общее
Идентификатор : 1 (0x1)
Полное имя : E:\torrent\The Program_HDTV 1080i.ts
Формат : MPEG-TS
Размер файла : 6,22 Гбайт
Продолжительность : 1 ч. 49 м.
Режим общего битрейта : Переменный
Общий поток : 8109 Кбит/сек
Видео
Идентификатор : 1606 (0x646)
Идентификатор меню : 1 (0x1)
Формат : AVC
Формат/Информация : Advanced Video Codec
Профиль формата : High@L4.0
Параметр CABAC формата : Да
Параметр ReFrames формата : 3 кадра
Параметр GOP формата : M=4, N=32
Идентификатор кодека : 27
Продолжительность : 1 ч. 49 м.
Битрейт : 7514 Кбит/сек
Ширина : 1920 пикселей
Высота : 1080 пикселей
Соотношение сторон : 16:9
Частота кадров : 25,000 кадров/сек
Стандарт вещания : Component
Цветовое пространство : YUV
Субдискретизация насыщенности : 4:2:0
Битовая глубина : 8 бит
Тип развёртки : Чересстрочная
Порядок развёртки : Верхнее поле первое
Бит/(Пиксели*Кадры) : 0.145
Размер потока : 5,76 Гбайт (93%)
Основные цвета : BT.709
Характеристики трансфера : BT.709
Коэффициенты матрицы : BT.709
Аудио
Идентификатор : 2606 (0xA2E)
Идентификатор меню : 1 (0x1)
Формат : MPEG Audio
Версия формата : Version 1
Профиль формата : Layer 2
Идентификатор кодека : 3
Продолжительность : 1 ч. 49 м.
Вид битрейта : Постоянный
Битрейт : 192 Кбит/сек
Каналы : 2 канала
Частота : 48,0 КГц
Метод сжатия : С потерями
Размер потока : 151 Мбайт (2%)
Язык : Russian

Скриншот с названием фильма

Скриншоты


Сравнение с DVD




Показать сообщения:    

Текущее время: 13-Дек 13:14

Часовой пояс: UTC ± 0


Вы не можете начинать темы
Вы не можете отвечать на сообщения
Вы не можете редактировать свои сообщения
Вы не можете удалять свои сообщения
Вы не можете голосовать в опросах
Вы не можете прикреплять файлы к сообщениям
Вы не можете скачивать файлы

!ВНИМАНИЕ!
Сайт не предоставляет электронные версии произведений, а занимается лишь коллекционированием и каталогизацией ссылок, присылаемых и публикуемых на форуме нашими читателями. Если вы являетесь правообладателем какого-либо представленного материала и не желаете, чтобы ссылка на него находилась в нашем каталоге, свяжитесь с нами, и мы незамедлительно удалим ее. Файлы для обмена на трекере предоставлены пользователями сайта, и администрация не несет ответственности за их содержание. Просьба не заливать файлы, защищенные авторскими правами, а также файлы нелегального содержания!