Важное объявление!
У Нас Все раздачи мультитрекерные, при нуле пиров в релизах, можете смело вставать на закачку!
 
Автор Сообщение

HUNTER

Стаж:
4 года 10 месяцев
Сообщений:
65492

Репутация: 101

[+] [-]
Вне форума [Профиль] [ЛС]

Программа *Созвездие* / Constellation Orion
Год выпуска: 2009
Страна: США
Продолжительность: 13 минут
Перевод: Suhona
Озвучивание:SpaceDust
Описание: По плану НАСА шаттлы перестанут летать к 2011 году, в 2015 году их заменят корабли серии Орион.
Зачем нужна программа Орион и что ждёт её в будущем рассказывается в этом фильме.
Качество: HD-DVDRip
Формат: MP4
Видео кодек: H.264
Аудио кодек: MP3
Видео: 852х480 2500Kbps 25fps
Аудио: 44100Hz stereo 80Kbps vbr

Скриншоты

MediaInfo

GeneralComplete name : M:\SpaceDust\01.Space\02.USA\2009 - Программа Созвездие - Constellation Orion\Созвездие-Bdrip.movFormat : MPEG-4Format profile : QuickTimeCodec ID : qtFile size : 213 MiBDuration : 13mn 17sOverall bit rate mode : VariableOverall bit rate : 2 243 KbpsEncoded date : UTC 2009-06-30 16:40:18Tagged date : UTC 2009-06-30 16:41:13Writing library : Apple QuickTime 7.6com.apple.quicktime.player.movie.audio.m : (Binary)
VideoID : 1Format : AVCFormat/Info : Advanced Video CodecFormat profile : Main@L3.1Format settings, CABAC : NoFormat settings, ReFrames : 2 framesCodec ID : avc1Codec ID/Info : Advanced Video CodingDuration : 13mn 17sBit rate : 2 171 KbpsWidth : 854 pixelsHeight : 480 pixelsDisplay aspect ratio : 16:9Frame rate mode : ConstantFrame rate : 29.970 fpsColor space : YUVChroma subsampling : 4:2:0Bit depth : 8 bitsScan type : ProgressiveBits/(Pixel*Frame) : 0.177Stream size : 206 MiB (97%)Title : Обработчик видео Apple / Обработчик псевдонимов AppleLanguage : EnglishEncoded date : UTC 2009-05-15 14:39:30Tagged date : UTC 2009-06-30 16:41:13Color primaries : BT.709Transfer characteristics : BT.709Matrix coefficients : BT.709
AudioID : 3Format : MPEG AudioFormat version : Version 1Format profile : Layer 3Mode : Joint stereoMode extension : MS StereoCodec ID : .mp3Duration : 13mn 16sBit rate mode : VariableBit rate : 68.1 KbpsChannel(s) : 2 channelsChannel positions : Front: L RSampling rate : 44.1 KHzCompression mode : LossyStream size : 6.47 MiB (3%)Title : Обработчик звука Apple / Обработчик псевдонимов AppleLanguage : EnglishEncoded date : UTC 2009-06-30 16:37:50Tagged date : UTC 2009-06-30 16:41:13

_________________
Показать сообщения:    

Текущее время: Сегодня 07:37

Часовой пояс: GMT



Вы не можете начинать темы
Вы не можете отвечать на сообщения
Вы не можете редактировать свои сообщения
Вы не можете удалять свои сообщения
Вы не можете голосовать в опросах
Вы не можете прикреплять файлы к сообщениям
Вы не можете скачивать файлы