Важное объявление!
У Нас Все раздачи мультитрекерные, при нуле пиров в релизах, можете смело вставать на закачку!
Статистика раздачи
Размер:     |    Зарегистрирован:     |    Скачан:     |   
Нет
 
     
 
 
Автор Сообщение

HUNTER

Стаж:
5 лет
Сообщений:
68053

Репутация: 101

[+] [-]
Вне форума [Профиль] [ЛС]

Приятное и Эффективное Общение. Автор: Дмитрий Колесов.
Страна: Россия
Тематика: Психология
Тип раздаваемого материала: Видеоурок
Продолжительность: 03:05:30
Год выпуска: 2012
Язык: Русский
Перевод: Не требуется
Описание: Запись вебинара Дмитрия Колесова - Простое и Эффективное Общение. Практические упражнения для развития навыков общения.
Формат: MOV
Видео: AVC, 640x358, 15 fps, 50 kbps
Аудио: AAC, 44.1 kHz, 1 ch, 64 kbps

Скриншоты

MediaInfo

Общее
Полное имя : I:\Communication.mov
Формат : MPEG-4
Профиль формата : QuickTime
Идентификатор кодека : qt
Размер файла : 155 Мбайт
Продолжительность : 3 ч. 5 м.
Общий поток : 117 Кбит/сек
Дата кодирования : UTC 2012-08-16 19:48:57
Дата пометки : UTC 2012-08-16 19:49:32
Библиотека кодирования : Apple QuickTime
Видео
Идентификатор : 2
Формат : AVC
Формат/Информация : Advanced Video Codec
Профиль формата : Main@L3.1
Параметр CABAC формата : Нет
Параметр ReFrames формата : 2 кадра
Параметр GOP формата : M=2, N=120
Идентификатор кодека : avc1
Идентификатор кодека/Информация : Advanced Video Coding
Продолжительность : 3 ч. 5 м.
Битрейт : 50,6 Кбит/сек
Ширина : 640 пикселей
Высота : 358 пикселей
Соотношение сторон : 16:9
Режим частоты кадров : Постоянный
Частота кадров : 15,000 кадров/сек
Цветовое пространство : YUV
Субдискретизация насыщенности : 4:2:0
Битовая глубина : 8 бит
Тип развёртки : Прогрессивная
Бит/(Пиксели*Кадры) : 0.015
Размер потока : 67,1 Мбайт (43%)
Заголовок : Обработчик видео Apple / Обработчик псевдонимов Apple
Язык : English
Дата кодирования : UTC 2012-08-16 19:22:39
Дата пометки : UTC 2012-08-16 19:49:32
Основные цвета : BT.601 NTSC
Характеристики трансфера : BT.709
Коэффициенты матрицы : BT.601
Аудио
Идентификатор : 1
Формат : AAC
Формат/Информация : Advanced Audio Codec
Профиль формата : LC
Идентификатор кодека : 40
Продолжительность : 3 ч. 5 м.
Продолжительность оригинала : 3 ч. 5 м.
Вид битрейта : Постоянный
Битрейт : 64,0 Кбит/сек
Каналы : 1 канал
Расположение каналов : Front: C
Частота : 44,1 КГц
Метод сжатия : С потерями
Размер потока : 83,4 Мбайт (54%)
Размер потока оригинала : 83,4 Мбайт (54%)
Заголовок : Обработчик звука Apple / Обработчик псевдонимов Apple
Язык : English
Дата кодирования : UTC 2012-08-16 19:22:38
Дата пометки : UTC 2012-08-16 19:49:32

_________________
Показать сообщения:    

Текущее время: Сегодня 06:57

Часовой пояс: GMT



Вы не можете начинать темы
Вы не можете отвечать на сообщения
Вы не можете редактировать свои сообщения
Вы не можете удалять свои сообщения
Вы не можете голосовать в опросах
Вы не можете прикреплять файлы к сообщениям
Вы не можете скачивать файлы