Важное объявление!
У Нас Все раздачи мультитрекерные, при нуле пиров в релизах, можете смело вставать на закачку!
Статистика раздачи
Размер:     |    Зарегистрирован:     |    Скачан:     |   
Нет
 
     
 
 
Автор Сообщение

HUNTER

Стаж:
5 лет
Сообщений:
68018

Репутация: 101

[+] [-]
Вне форума [Профиль] [ЛС]

Приятель Джои / Pal Joey-
Год выпуска: 1957
Страна: США
Жанр: мюзикл, мелодрама, комедия
Продолжительность: 01:49:07
Перевод:
  • Профессиональный (многоголосый закадровый)
  • Авторский (одноголосый закадровый) Григорий Либергал, "Имидж-Арт"
Перевод:
Оригинальная аудиодорожка: Английская
Cубтитры: Английские (полные, для слабослышащих)-Режиссер: Джордж Сидни / George Sidney
В ролях: Рита Хэйворт, Фрэнк Синатра, Ким Новак, Барбара Николс, Бобби Шервуд, Хэнк Генри, Элизабет Паттерсон, Франклин Фэрнум, Бесс Флауэрс, Пьер Уаткин-Описание:
Экранизация знаменитого бродвейского мюзикла.
Шикарная комедия с Фрэнком Синатрой в роли отчаянного ловеласа Джои, любителя блондинок и брюнеток, толстых и худых, молодых и не очень. Скрываясь от очередного обманутого мужа в маленьком городе, он становится постановщиком ревю и соблазняет и спонсора постановки Веру Симпсон и главную звезду Линду.- | | Сэмпл-Качество: BDRemux 1080p (Pal Joey 1957 1080p Blu-ray AVC DTS-HD MA 5.1, thx shakill)
Контейнер: MKV
Видео: 1920x1080 (1.85:1), 23.976 fps, 32000 kbps
Аудио 1: Русский AC3 2.0, 48 kHz, 192 kbps — MVO
Аудио 2: Русский AC3 2.0, 48 kHz, 192 kbps — Либергал
Аудио 3: Английский DTS-HD MA 5.1, 48 kHz, 3659 kbps, 24-bit (DTS Core: 5.1, 48 kHz, 1509 kbps, 24-bit)
Аудио 4: Английский FLAC 2.0, 48 kHz, 1189 kbps
Аудио 5: Английский FLAC 2.0, 48 kHz, 195 kbps – Isolated Score Track
Формат субтитров: softsub (SRT)

Скриншоты


MI

General
Unique ID : 193056743448921424089029794832333320393 (0x913D605656938948B51E3409E122B0C9)
Complete name : Pal.Joey.1957.1080p.Remux.mkv
Format : Matroska
Format version : Version 2
File size : 28.5 GiB
Duration : 1h 49mn
Overall bit rate mode : Variable
Overall bit rate : 37.4 Mbps
Movie name : Pal Joey / Приятель Джои (1957) – RuTracker
Encoded date : UTC 2014-02-22 13:44:46
Writing application : mkvmerge v6.1.0 ('Old Devil') built on Mar 2 2013 14:32:37
Writing library : libebml v1.3.0 + libmatroska v1.4.0
Attachment : Yes
Video
ID : 1
Format : AVC
Format/Info : Advanced Video Codec
Format profile : High@L4.1
Format settings, CABAC : Yes
Format settings, ReFrames : 4 frames
Codec ID : V_MPEG4/ISO/AVC
Duration : 1h 49mn
Bit rate mode : Variable
Maximum bit rate : 38.0 Mbps
Width : 1 920 pixels
Height : 1 080 pixels
Display aspect ratio : 16:9
Frame rate mode : Constant
Frame rate : 23.976 fps
Color space : YUV
Chroma subsampling : 4:2:0
Bit depth : 8 bits
Scan type : Progressive
Title : Pal Joey 1957 1080p Blu-ray AVC DTS-HD MA 5.1
Language : English
Default : Yes
Forced : No
Audio #1
ID : 2
Format : AC-3
Format/Info : Audio Coding 3
Mode extension : CM (complete main)
Format settings, Endianness : Big
Codec ID : A_AC3
Duration : 1h 49mn
Bit rate mode : Constant
Bit rate : 192 Kbps
Channel(s) : 2 channels
Channel positions : Front: L R
Sampling rate : 48.0 KHz
Bit depth : 16 bits
Compression mode : Lossy
Stream size : 150 MiB (1%)
Title : MVO
Language : Russian
Default : Yes
Forced : No
Audio #2
ID : 3
Format : AC-3
Format/Info : Audio Coding 3
Mode extension : CM (complete main)
Format settings, Endianness : Big
Codec ID : A_AC3
Duration : 1h 49mn
Bit rate mode : Constant
Bit rate : 192 Kbps
Channel(s) : 2 channels
Channel positions : Front: L R
Sampling rate : 48.0 KHz
Bit depth : 16 bits
Compression mode : Lossy
Stream size : 150 MiB (1%)
Title : AVO – Г.Либергал (Имидж-Арт)
Language : Russian
Default : No
Forced : No
Audio #3
ID : 4
Format : DTS
Format/Info : Digital Theater Systems
Format profile : MA / Core
Mode : 16
Format settings, Endianness : Big
Codec ID : A_DTS
Duration : 1h 49mn
Bit rate mode : Variable
Bit rate : Unknown / 1 509 Kbps
Channel(s) : 6 channels
Channel positions : Front: L C R, Side: L R, LFE
Sampling rate : 48.0 KHz
Bit depth : 24 bits
Compression mode : Lossless / Lossy
Title : Original 5.1
Language : English
Default : No
Forced : No
Audio #4
ID : 5
Format : FLAC
Format/Info : Free Lossless Audio Codec
Codec ID : A_FLAC
Duration : 1h 49mn
Bit rate mode : Variable
Channel(s) : 2 channels
Sampling rate : 48.0 KHz
Bit depth : 24 bits
Title : Original 2.0
Writing library : libFLAC 1.2.1 (UTC 2007-09-17)
Language : English
Default : No
Forced : No
Audio #5
ID : 6
Format : FLAC
Format/Info : Free Lossless Audio Codec
Codec ID : A_FLAC
Duration : 1h 49mn
Bit rate mode : Variable
Channel(s) : 2 channels
Sampling rate : 48.0 KHz
Bit depth : 16 bits
Title : Isolated Score Track
Writing library : libFLAC 1.2.1 (UTC 2007-09-17)
Default : No
Forced : No
Text #1
ID : 7
Format : UTF-8
Codec ID : S_TEXT/UTF8
Codec ID/Info : UTF-8 Plain Text
Language : English
Default : No
Forced : No
Text #2
ID : 8
Format : UTF-8
Codec ID : S_TEXT/UTF8
Codec ID/Info : UTF-8 Plain Text
Title : SDH
Language : English
Default : No
Forced : No
Text #3
ID : 9
Format : PGS
Muxing mode : zlib
Codec ID : S_HDMV/PGS
Codec ID/Info : The same subtitle format used on BDs/HD-DVDs
Title : SDH
Language : English
Default : No
Forced : No
Menu
00:00:00.000 : en:Chapter 01
00:15:29.136 : en:Chapter 02
00:23:41.211 : en:Chapter 03
00:30:25.782 : en:Chapter 04
00:38:27.596 : en:Chapter 05
00:44:42.262 : en:Chapter 06
00:56:39.813 : en:Chapter 07
01:05:21.042 : en:Chapter 08
01:11:22.069 : en:Chapter 09
01:23:09.275 : en:Chapter 10
01:36:48.093 : en:Chapter 11
01:42:22.594 : en:Chapter 12

_________________
Показать сообщения:    

Текущее время: Сегодня 16:41

Часовой пояс: GMT



Вы не можете начинать темы
Вы не можете отвечать на сообщения
Вы не можете редактировать свои сообщения
Вы не можете удалять свои сообщения
Вы не можете голосовать в опросах
Вы не можете прикреплять файлы к сообщениям
Вы не можете скачивать файлы