Ивановский Торрент трекер
Яндекс.Погода
 

[Цитировать]
HUNTER

- Год выпуска: 2014
Страна: Япония
Жанр: комедия, романтика
Продолжительность: ТВ-сериал, 20 эп. по 25 мин.
Выпуск: c 11.01.2014 по 24.05.2014-Перевод:
  • русские субтитры от GMC (полные/вспомогательные)
    оформление: DJATOM, переводчик: Koushin, редакторы: Schum, Shifroval
-Режиссер: Симбо Акиюки
Студия: SHAFT-Описание:
Раку Итидзё в детстве дружил с одной девочкой. Ребята обменялись детскими мечтами и обещаниями, а потом расстались, причем Раку в прямом смысле запечатал воспоминания на замок, который повесил на шею, а ключ оставил избраннице. Почему он так поступил? Потому что сын и наследник главы клана Сюэй-гуми не собирается заниматься ерундой, а хочет стать юристом – их, в отличие от старомодных якудза, абсолютно все боятся! Так что Итидзё не до сантиментов – учиться надо, что он и делал до того дня, когда встретил в школе Титогэ Кирисаки – резкую и взбалмошную красавицу-полукровку, начавшую знакомство с удара коленом в лоб. И это белокурое создание оказалось его будущей девушкой!
Увы, иначе никак, ибо Титогэ – дочь босса банды «Улей», вторгнувшейся на территорию Сюэй-гуми. Хотя оба лидера – старые друзья, ситуация выходит из-под контроля, и единственный способ избежать уличной войны – объявить, что наследники обоих кланов полюбили друг друга, а стало быть и якудза, и заезжие гангстеры теперь одна большая семья. Многие в бандитской среде усомнились в такой постановке вопроса, а значит, ребятам придется постараться, пусть через «не могу»! Впрочем, даже имитируя любовь, Раку и Титогэ все равно начали общаться, становиться ближе друг другу, а тут выяснилось, что у девушки с детства хранится интересный ключик. Но схожий ключик есть и у их одноклассницы Онодэры, а потом еще кое-кто появился… Да они что, в Японии, все с ключами ходят?!
© Hollow, World Art-Информационные ссылки: AniDB || World Art || MAL-Качество: BDRip
Энкод: Winter - RG Pantheon
Тип видео: без хардсаба
Формат: mkv
Видео: x264 (Hi10p), 1280x720, ~2900 Kbps, 23.976 fps
Аудио JAP: Vorbis, 48000Hz, ~256 Kbps, 2ch
Аудио RUS 1-3: AC3, 48000Hz, ~192 Kbps, 2ch (внешними файлами)-

Список озвучек в раздаче

  • одноголосая (муж.) от Keita (Anything-group) [1]
  • двухголосая (муж./жен.) от Nutbar & Mosa (Anifilm)
  • двухголосая (муж./жен.) от Zendos & Eladiel

Список эпизодов

01. The Promise
02. Encounter

Скриншоты


Подробные тех. данные

Общее
Уникальный идентификатор : 191388620651483598731622231015124423113 (0x8FFC1B8893FD3EEB9A74D5A88004D1C9)
Полное имя : Z:\Anime\720p\Nisekoi [BD] [720p]\[Winter] Nisekoi 01 [BDrip 1280x720 x264 Vorbis].mkv
Формат : Matroska
Версия формата : Version 2
Размер файла : 540 Мбайт
Продолжительность : 24 м.
Режим общего битрейта : Переменный
Общий поток : 3122 Кбит/сек
Дата кодирования : UTC 2014-04-19 19:45:49
Программа кодирования : mkvmerge v2.9.8 ('C'est le bon') built on Aug 13 2009 12:49:06
Библиотека кодирования : libebml v0.7.7 + libmatroska v0.8.1
Видео
Идентификатор : 1
Формат : AVC
Формат/Информация : Advanced Video Codec
Профиль формата : High 10@L4.1
Параметр CABAC формата : Да
Параметр ReFrames формата : 9 кадров
Идентификатор кодека : V_MPEG4/ISO/AVC
Продолжительность : 24 м.
Битрейт : 2804 Кбит/сек
Ширина : 1280 пикселей
Высота : 720 пикселей
Соотношение сторон : 16:9
Режим частоты кадров : Постоянный
Частота кадров : 23,976 кадра/сек
Цветовое пространство : YUV
Субдискретизация насыщенности : 4:2:0
Битовая глубина : 10 бит
Тип развёртки : Прогрессивная
Бит/(Пиксели*Кадры) : 0.127
Размер потока : 485 Мбайт (90%)
Библиотека кодирования : x264 core 132 r2309 3b1f1f7
Настройки программы : cabac=1 / ref=9 / deblock=1:-2:-2 / analyse=0x3:0x133 / me=umh / subme=9 / psy=1 / psy_rd=0.90:0.00 / mixed_ref=1 / me_range=24 / chroma_me=1 / trellis=2 / 8x8dct=1 / cqm=0 / deadzone=21,11 / fast_pskip=1 / chroma_qp_offset=-2 / threads=12 / lookahead_threads=2 / sliced_threads=0 / nr=0 / decimate=0 / interlaced=0 / bluray_compat=0 / constrained_intra=0 / bframes=8 / b_pyramid=2 / b_adapt=2 / b_bias=0 / direct=1 / weightb=1 / open_gop=0 / weightp=2 / keyint=250 / keyint_min=23 / scenecut=40 / intra_refresh=0 / rc=crf / mbtree=0 / crf=15.6 / qcomp=0.70 / qpmin=9 / qpmax=40 / qpstep=4 / ip_ratio=1.40 / pb_ratio=1.30 / aq=1:0.90 / zones=1702,2409,b=1.2
Default : Нет
Forced : Нет
Аудио
Идентификатор : 2
Формат : Vorbis
Параметр Floor формата : 1
Идентификатор кодека : A_VORBIS
Продолжительность : 24 м.
Вид битрейта : Переменный
Битрейт : 256 Кбит/сек
Каналы : 2 канала
Частота : 48,0 КГц
Метод сжатия : С потерями
Размер потока : 44,3 Мбайт (8%)
Библиотека кодирования : libVorbis (Schaufenugget) (20101101 (Schaufenugget))
Язык : Japanese
Default : Да
Forced : Нет
- -

Информация о релизе

  • Выбор видео, перевода, озвучки, а также типа сборки материала осуществляется релизером и не подлежит обсуждению. Если вы считаете, что раздаваемый материал противоречит правилам раздела "Аниме" rutracker.org, сообщите об этом одному из модераторов раздела.
  • В случае появления нового материала или же лучшего по качеству материала релизер оставляет за собой право обновить раздачу. В этом случае вам необходимо ознакомиться с изменениями (добавлениями) и перекачать торрент.
  • Данный релиз предназначен для просмотра на ПК. Воспроизведение на иных проигрывателях не гарантируется. Для просмотра рекомендуется Media Player Classic с установленным пакетом кодеков K-Lite.
  • Данный релиз содержит 10-битное видео (Hi10p). Для корректного воспроизведения обязательно используйте кодеки, поддерживающие 10-битное видео.
    Обсудить проблемы с воспроизведением и получить дополнительную информацию можно здесь.

  • Данный релиз предназначен для просмотра с внешними субтитрами и внешними звуковыми дорожками.
    • Для просмотра с внешней звуковой дорожкой нужно:
      перекинуть файлы .mka из папки "RUS Sound [<автор(ы) озвучки>]" в одну папку с видео и переключить звуковую дорожку в плеере при просмотре. Как это сделать в разных плеерах подробно описано здесь.

    • Для просмотра с субтитрами нужно:
      перекинуть файлы .ass из папки "RUS Subtitles [<автор(ы) перевода>]" в одну папку с видео - плеер подгрузит их автоматически при открытии видео.
  • Если у вас возникли проблемы с просмотром, не связанные с описанным выше, сообщите о них автору раздачи посредством сообщения в теме или ЛС Aglenn.


Показать сообщения:    

Текущее время: 12-Дек 23:54

Часовой пояс: UTC ± 0


Вы не можете начинать темы
Вы не можете отвечать на сообщения
Вы не можете редактировать свои сообщения
Вы не можете удалять свои сообщения
Вы не можете голосовать в опросах
Вы не можете прикреплять файлы к сообщениям
Вы не можете скачивать файлы

!ВНИМАНИЕ!
Сайт не предоставляет электронные версии произведений, а занимается лишь коллекционированием и каталогизацией ссылок, присылаемых и публикуемых на форуме нашими читателями. Если вы являетесь правообладателем какого-либо представленного материала и не желаете, чтобы ссылка на него находилась в нашем каталоге, свяжитесь с нами, и мы незамедлительно удалим ее. Файлы для обмена на трекере предоставлены пользователями сайта, и администрация не несет ответственности за их содержание. Просьба не заливать файлы, защищенные авторскими правами, а также файлы нелегального содержания!