Ивановский Торрент трекер
Яндекс.Погода
 

[Цитировать]
HUNTER

Припять / Pripyat
Год выпуска: 1999
Страна: Австрия
Жанр: документальный
Продолжительность: 01:39:58
-
Перевод: Не требуется
Русские субтитры: нет
-
Режиссер: Николаус Гейрхальтер / Nikolaus Geyrhalter
-
Описание: Документальный фильм о последствиях Чернобыля. Премирован на 14-ом международном фестивале документальных фильмов в Мюнхене.
Припять находится около 2 км (по прямой) от Чернобыльской АЭС и в ней на момент аварии в городе проживало почти 49 тыс. человек 134 национальностей СССР. Так вот в фильме документалист затронул как будничный быт населённых пунктов "полосы отчуждения", так и непростые судьбы людей, переживших Чернобыль и не покинувших свою землю.
-

-
качество: DVDRip (DVD5/intellect)
формат: AVI
Видео: 688x400 (1.72:1), 25 fps, XviD build 73 ~1889 kbps avg, 0.27 bit/pixel
Аудио: 48 kHz, AC3 Dolby Digital, 2/0 (L,R) ch, ~192 kbps RUS

MediaInfo

GeneralComplete name : D:\Релизы\Припять.Pripyat.1999.RUS.DVDRip.XviD.AC3.aviFormat : AVIFormat/Info : Audio Video InterleaveFile size : 1.46 GiBDuration : 1h 39mnOverall bit rate : 2 091 KbpsWriting application : VirtualDubMod 1.5.10.2 (build 2540/release)Writing library : VirtualDubMod build 2540/release
VideoID : 0Format : MPEG-4 VisualFormat profile : Advanced Simple@L5Format settings, BVOP : 1Format settings, QPel : NoFormat settings, GMC : No warppointsFormat settings, Matrix : CustomCodec ID : XVIDCodec ID/Hint : XviDDuration : 1h 39mnBit rate : 1 890 KbpsWidth : 688 pixelsHeight : 400 pixelsDisplay aspect ratio : 1.720Frame rate : 25.000 fpsColor space : YUVChroma subsampling : 4:2:0Bit depth : 8 bitsScan type : ProgressiveCompression mode : LossyBits/(Pixel*Frame) : 0.275Stream size : 1.32 GiB (90%)Writing library : XviD 73
AudioID : 1Format : AC-3Format/Info : Audio Coding 3Mode extension : CM (complete main)Format settings, Endianness : BigCodec ID : 2000Duration : 1h 39mnBit rate mode : ConstantBit rate : 192 KbpsChannel(s) : 2 channelsChannel positions : Front: L RSampling rate : 48.0 KHzBit depth : 16 bitsCompression mode : LossyStream size : 137 MiB (9%)Alignment : Split accross interleavesInterleave, duration : 40 ms (1.00 video frame)Interleave, preload duration : 500 ms

Скриншоты



Показать сообщения:    

Текущее время: 11-Дек 11:33

Часовой пояс: UTC ± 0


Вы не можете начинать темы
Вы не можете отвечать на сообщения
Вы не можете редактировать свои сообщения
Вы не можете удалять свои сообщения
Вы не можете голосовать в опросах
Вы не можете прикреплять файлы к сообщениям
Вы не можете скачивать файлы

!ВНИМАНИЕ!
Сайт не предоставляет электронные версии произведений, а занимается лишь коллекционированием и каталогизацией ссылок, присылаемых и публикуемых на форуме нашими читателями. Если вы являетесь правообладателем какого-либо представленного материала и не желаете, чтобы ссылка на него находилась в нашем каталоге, свяжитесь с нами, и мы незамедлительно удалим ее. Файлы для обмена на трекере предоставлены пользователями сайта, и администрация не несет ответственности за их содержание. Просьба не заливать файлы, защищенные авторскими правами, а также файлы нелегального содержания!