Принц Египта / Prince of Egypt (Бренда Чепмен / Brenda Chapman, Стив Хикнер / Steve Hickner, Саймон Уэллс / Simon Wells) [1998, мультфильм, мюзикл, драма, приключения, семейный, история, WEB-DL 720p] DUB + MVO + 2xDVO + 2xAVO + UKR + ENG + SUBs :: Ивановский Торрент трекер
Важное объявление!
У Нас Все раздачи мультитрекерные, при нуле пиров в релизах, можете смело вставать на закачку!
Статистика раздачи
Размер:     |    Зарегистрирован:     |    Скачан:     |   
Нет
 
     
 
 
Автор Сообщение

HUNTER

Стаж:
4 года 11 месяцев
Сообщений:
66098

Репутация: 101

[+] [-]
Вне форума [Профиль] [ЛС]

Принц Египта
Prince of Egypt
«Two brothers united by friendship divided by destiny»
Год выпуска: 1998
Страна: США
Жанр: мультфильм, мюзикл, драма, приключения, семейный, история
Продолжительность: 01:38:41
Перевод:
Профессиональный (Дублированный) - по заказу Первого канала
Профессиональный (Многоголосый закадровый) - "Премьер Мультимедиа"
Профессиональный (Двухголосый закадровый)
Профессиональный (Двухголосый закадровый) - Людмила Ильина и Вадим Андреев
Авторский (Одноголосый закадровый) - Сергей Визгунов
Авторский (Одноголосый закадровый) - Николай "Антонов"
русские субтитры: есть-Режиссёр: Бренда Чепмен : Brenda Chapman, Стив Хикнер : Steve Hickner, Саймон Уэллс : Simon Wells-Роли озвучивали: Вэл Килмер, Рэйф Файнс, Мишель Пфайффер, Сандра Буллок, Джефф Голдблюм, Дэнни Гловер, Патрик Стюарт, Хелен Миррен, Стив Мартин, Мартин Шорт
Роли дублировали: Алексей Мясников, Виктор Бохон, Владимир Вихров, Сергей Бурунов, Нина Александрова-Описание: Эта история случилась на заре цивилизации в Древнем Египте. Стремительный и величавый Нил вынес на берег перед дворцом фараона корзину с младенцем. Могущественный правитель усыновил крошечного мальчика и дал ему имя Моисей.
Шли годы… Моисей и его брат Рамзес росли вместе. Но придет день, когда один из братьев станет владыкой величайшей империи на земле, а другой — святым… Противоборство героев навсегда изменит их судьбы и историю человечества.- релиз: -- Большое спасибо multmir за голос Сергея Визгунова;
- Большое спасибо bora86bora за оцифровку Н."Антонова" и "Премьер Мультимедиа";
- Большое спасибо серый75 за оцифровку (VHS,Премьер) Людмила Ильина и Вадим Андреев;
- Большое спасибо xfiles за Дубляж с СТС и украинскую Многоголоску от К1;
- Большое спасибо Lexa1988-L1 за Isolated Track (музыкальное сопровождение);
- Большое спасибо Levcovetz за русские субтитры от Павла Левковца;
- Работа с WEB-DL и звуком -Azureus--Качество: WEB-DL 720p
Формат: MKV
Видео кодек: AVC
Аудио кодек: AC3 : FLAC
Видео: 1278x720 , 23,976 fps, ~3844 kbps avg, 0.174 bit/pixel
Аудио #1: [RUS] 48 kHz, AC3 Dolby Digital, 2/0 (L,R) ch, ~192 kbps kbps avg - DUB
Аудио #2: [RUS] 48 kHz, AC3 Dolby Digital, 2/0 (L,R) ch, ~192 kbps kbps avg - MVO
Аудио #3: [RUS] 48 kHz, AC3 Dolby Digital, 3/2 (L,C,R,l,r) + LFE ch, ~448 kbps avg - DVO
Аудио #4: [RUS] 48 kHz, FLAC, 2/0 (L,R) ch, ~714 kbps kbps avg - DVO /Людмила Ильина и Вадим Андреев/
Аудио #5: [RUS] 48 kHz, AC3 Dolby Digital, 3/2 (L,C,R,l,r) + LFE ch, ~448 kbps avg - AVO /С.Визгунов/
Аудио #6: [RUS] 48 kHz, AC3 Dolby Digital, 1/0 (L,R) ch, ~192 - AVO /Н."Антонов"/
Аудио #7: [UKR] 48 kHz, AC3 Dolby Digital, 2/0 (L,R) ch, ~192 kbps kbps avg - MVO /K1/
Аудио #8: [ENG] 48 kHz, AC3 Dolby Digital, 3/2 (L,C,R,l,r) + LFE ch, ~448 kbps avg
Аудио #9: [RUS] 48 kHz, AC3 Dolby Digital, 2/0 (L,R) ch, ~192 kbps kbps avg - comment
Аудио #10: [ENG] 48 kHz, AC3 Dolby Digital, 2/0 (L,R) ch, ~192 kbps kbps avg - comment
Аудио #11: [ENG] 48 kHz, AC3 Dolby Digital, 2/0 (L,R) ch, ~192 kbps kbps avg - Isolated Track /музыкальное сопровождение/
субтитры: русские, русские - Павел Левковец, английские (SDH)
навигация по главам: 28 глав (именные)

MediaInfo

Общее
Уникальный идентификатор : 226611052998141797787205319593835244326 (0xAA7BB3866B518D078746F14BFD862B26)
Полное имя : D:\Im\Принц Египта\Prince of Egypt.1998.WEB-DL 720p.mkv
Формат : Matroska
Версия формата : Version 4 / Version 2
Размер файла : 5,06 Гбайт
Продолжительность : 1 ч. 38 м.
Режим общего битрейта : Переменный
Общий поток : 7335 Кбит/сек
Название фильма : Prince of Egypt.1998.WEB-DL 720p -Azureus-
Дата кодирования : UTC 2015-03-19 08:34:09
Программа кодирования : mkvmerge v7.5.0 ('Glass Culture') 32bit built on Jan 4 2015 16:37:25
Библиотека кодирования : libebml v1.3.1 + libmatroska v1.4.2
DURATION : 01:36:52.760000000
NUMBER_OF_FRAMES : 1067
NUMBER_OF_BYTES : 29835
_STATISTICS_WRITING_APP : mkvmerge v7.5.0 ('Glass Culture') 32bit built on Jan 4 2015 16:37:25
_STATISTICS_WRITING_DATE_UTC : 2015-03-19 08:34:09
_STATISTICS_TAGS : BPS DURATION NUMBER_OF_FRAMES NUMBER_OF_BYTES
Видео
Идентификатор : 1
Формат : AVC
Формат/Информация : Advanced Video Codec
Профиль формата : High@L3.1
Параметр CABAC формата : Нет
Параметр ReFrames формата : 2 кадра
Параметр GOP формата : N=1
Идентификатор кодека : V_MPEG4/ISO/AVC
Продолжительность : 1 ч. 38 м.
Ширина : 1278 пикселей
Высота : 720 пикселей
Соотношение сторон : 16:9
Частота кадров : 23,976 кадра/сек
Цветовое пространство : YUV
Субдискретизация насыщенности : 4:2:0
Битовая глубина : 8 бит
Тип развёртки : Прогрессивная
Язык : English
Default : Да
Forced : Нет
Основные цвета : BT.709-5, BT.1361, IEC 61966-2-4, SMPTE RP177
Характеристики трансфера : BT.709-5, BT.1361
Коэффициенты матрицы : BT.709-5, BT.1361, IEC 61966-2-4 709, SMPTE RP177
Аудио #1
Идентификатор : 2
Формат : AC-3
Формат/Информация : Audio Coding 3
Расширение режима : CM (complete main)
Идентификатор кодека : A_AC3
Продолжительность : 1 ч. 38 м.
Вид битрейта : Постоянный
Битрейт : 192 Кбит/сек
Каналы : 1 канал
Расположение каналов : Front: C
Частота : 48,0 КГц
Битовая глубина : 16 бит
Метод сжатия : С потерями
Размер потока : 136 Мбайт (3%)
Заголовок : DUB - по заказу Первого канала
Язык : Russian
Default : Да
Forced : Нет
Аудио #2
Идентификатор : 3
Формат : AC-3
Формат/Информация : Audio Coding 3
Расширение режима : CM (complete main)
Идентификатор кодека : A_AC3
Продолжительность : 1 ч. 38 м.
Вид битрейта : Постоянный
Битрейт : 192 Кбит/сек
Каналы : 2 канала
Расположение каналов : Front: L R
Частота : 48,0 КГц
Битовая глубина : 16 бит
Метод сжатия : С потерями
Размер потока : 136 Мбайт (3%)
Заголовок : MVO - - "Премьер Мультимедиа"
Язык : Russian
Default : Нет
Forced : Нет
Аудио #3
Идентификатор : 4
Формат : AC-3
Формат/Информация : Audio Coding 3
Расширение режима : CM (complete main)
Идентификатор кодека : A_AC3
Продолжительность : 1 ч. 38 м.
Вид битрейта : Постоянный
Битрейт : 448 Кбит/сек
Каналы : 6 каналов
Расположение каналов : Front: L C R, Side: L R, LFE
Частота : 48,0 КГц
Битовая глубина : 16 бит
Метод сжатия : С потерями
Размер потока : 316 Мбайт (6%)
Заголовок : DVO
Язык : Russian
Default : Нет
Forced : Нет
Аудио #4
Идентификатор : 5
Формат : FLAC
Формат/Информация : Free Lossless Audio Codec
Идентификатор кодека : A_FLAC
Продолжительность : 1 ч. 38 м.
Вид битрейта : Переменный
Каналы : 2 канала
Частота : 48,0 КГц
Битовая глубина : 16 бит
Заголовок : DVO - Людмила Ильина и Вадим Андреев
Библиотека кодирования : libFLAC 1.2.1 (UTC 2007-09-17)
Язык : Russian
Default : Нет
Forced : Нет
Аудио #5
Идентификатор : 6
Формат : AC-3
Формат/Информация : Audio Coding 3
Расширение режима : CM (complete main)
Идентификатор кодека : A_AC3
Продолжительность : 1 ч. 38 м.
Вид битрейта : Постоянный
Битрейт : 448 Кбит/сек
Каналы : 6 каналов
Расположение каналов : Front: L C R, Side: L R, LFE
Частота : 48,0 КГц
Битовая глубина : 16 бит
Метод сжатия : С потерями
Размер потока : 316 Мбайт (6%)
Заголовок : AVO - Сергей Визгунов
Язык : Russian
Default : Нет
Forced : Нет
Аудио #6
Идентификатор : 7
Формат : AC-3
Формат/Информация : Audio Coding 3
Расширение режима : CM (complete main)
Идентификатор кодека : A_AC3
Продолжительность : 1 ч. 38 м.
Вид битрейта : Постоянный
Битрейт : 192 Кбит/сек
Каналы : 1 канал
Расположение каналов : Front: C
Частота : 48,0 КГц
Битовая глубина : 16 бит
Метод сжатия : С потерями
Размер потока : 136 Мбайт (3%)
Заголовок : AVO - Николай "Антонов"
Язык : Russian
Default : Нет
Forced : Нет
Аудио #7
Идентификатор : 8
Формат : AC-3
Формат/Информация : Audio Coding 3
Расширение режима : CM (complete main)
Идентификатор кодека : A_AC3
Продолжительность : 1 ч. 38 м.
Вид битрейта : Постоянный
Битрейт : 192 Кбит/сек
Каналы : 2 канала
Расположение каналов : Front: L R
Частота : 48,0 КГц
Битовая глубина : 16 бит
Метод сжатия : С потерями
Размер потока : 136 Мбайт (3%)
Заголовок : UKR - K1
Язык : Ukrainian
Default : Нет
Forced : Нет
Аудио #8
Идентификатор : 9
Формат : AC-3
Формат/Информация : Audio Coding 3
Расширение режима : CM (complete main)
Идентификатор кодека : A_AC3
Продолжительность : 1 ч. 38 м.
Вид битрейта : Постоянный
Битрейт : 448 Кбит/сек
Каналы : 6 каналов
Расположение каналов : Front: L C R, Side: L R, LFE
Частота : 48,0 КГц
Битовая глубина : 16 бит
Метод сжатия : С потерями
Размер потока : 316 Мбайт (6%)
Заголовок : ENG
Язык : English
Default : Нет
Forced : Нет
Аудио #9
Идентификатор : 10
Формат : AC-3
Формат/Информация : Audio Coding 3
Расширение режима : CM (complete main)
Идентификатор кодека : A_AC3
Продолжительность : 1 ч. 38 м.
Вид битрейта : Постоянный
Битрейт : 192 Кбит/сек
Каналы : 2 канала
Расположение каналов : Front: L R
Частота : 48,0 КГц
Битовая глубина : 16 бит
Метод сжатия : С потерями
Размер потока : 136 Мбайт (3%)
Заголовок : Rus coment
Язык : Russian
Default : Нет
Forced : Нет
Аудио #10
Идентификатор : 11
Формат : AC-3
Формат/Информация : Audio Coding 3
Расширение режима : CM (complete main)
Идентификатор кодека : A_AC3
Продолжительность : 1 ч. 38 м.
Вид битрейта : Постоянный
Битрейт : 192 Кбит/сек
Каналы : 2 канала
Расположение каналов : Front: L R
Частота : 48,0 КГц
Битовая глубина : 16 бит
Метод сжатия : С потерями
Размер потока : 136 Мбайт (3%)
Заголовок : Eng coment
Язык : English
Default : Нет
Forced : Нет
Аудио #11
Идентификатор : 12
Формат : AC-3
Формат/Информация : Audio Coding 3
Расширение режима : CM (complete main)
Идентификатор кодека : A_AC3
Продолжительность : 1 ч. 38 м.
Вид битрейта : Постоянный
Битрейт : 192 Кбит/сек
Каналы : 1 канал
Расположение каналов : Front: C
Частота : 48,0 КГц
Битовая глубина : 16 бит
Метод сжатия : С потерями
Размер потока : 136 Мбайт (3%)
Заголовок : Isolated Track
Default : Нет
Forced : Нет
Текст #1
Идентификатор : 13
Формат : UTF-8
Идентификатор кодека : S_TEXT/UTF8
Идентификатор кодека/Информация : UTF-8 Plain Text
Заголовок : Rus Sub
Язык : Russian
Default : Нет
Forced : Нет
Текст #2
Идентификатор : 14
Формат : UTF-8
Идентификатор кодека : S_TEXT/UTF8
Идентификатор кодека/Информация : UTF-8 Plain Text
Заголовок : Rus Sub - Павел Левковец
Язык : Russian
Default : Нет
Forced : Нет
Текст #3
Идентификатор : 15
Формат : UTF-8
Идентификатор кодека : S_TEXT/UTF8
Идентификатор кодека/Информация : UTF-8 Plain Text
Заголовок : Eng Sub - SDH
Язык : English
Default : Нет
Forced : Нет
Меню
00:00:00.000 : en:Deliver Us (Main Title)
00:04:15.000 : en:The River
00:08:15.000 : en:Chariot Race
00:11:08.000 : en:One Weak Link
00:13:34.000 : en:Rameses' Hiding Place
00:14:59.000 : en:Desert Flower
00:19:01.000 : en:You are Our Brother
00:22:20.000 : en:All I Ever Wanted
00:24:22.000 : en:Hieroglyph Nightmare
00:25:54.000 : en:Sacrifice
00:27:40.000 : en:This is Your Home
00:29:14.000 : en:Slavery
00:33:16.000 : en:The Sand Storm
00:37:24.000 : en:Through Heaven's Eyes
00:42:10.000 : en:Burning Bush
00:47:54.000 : en:The MIssion
00:50:51.000 : en:Let My People Go
00:53:44.000 : en:Playing with the Big Boys
00:56:57.000 : en:Rameses vs Moses
00:59:24.000 : en:Nile of Blood
01:05:11.000 : en:Plagues
01:08:13.000 : en:Ultimatum
01:12:15.000 : en:Death of the First Born
01:16:57.000 : en:When You Believe
01:22:24.000 : en:Parting The Red Sea
01:26:07.000 : en:The Closing of The Red Sea
01:29:13.000 : en:Goodbye Brother
01:31:30.000 : en:End Credits
____________________________________________
Стою на раздаче до 5 дней.
Просьба скачавшим как можно дольше не покидать раздачу!
ВСЕМ ПРИЯТНОГО ПРОСМОТРА!_________________________________________

_________________
Показать сообщения:    

Текущее время: Сегодня 12:35

Часовой пояс: GMT



Вы не можете начинать темы
Вы не можете отвечать на сообщения
Вы не можете редактировать свои сообщения
Вы не можете удалять свои сообщения
Вы не можете голосовать в опросах
Вы не можете прикреплять файлы к сообщениям
Вы не можете скачивать файлы