Важное объявление!
У Нас Все раздачи мультитрекерные, при нуле пиров в релизах, можете смело вставать на закачку!
 
Автор Сообщение

HUNTER

Стаж:
4 года 6 месяцев
Сообщений:
60981

Репутация: 101

[+] [-]
Вне форума [Профиль] [ЛС]

Принцесса с мельницы / Princezna ze mlejna / The Watermill Princess
Страна: Чехия
Жанр: сказка, фэнтези, семейный
Год выпуска: 1994
Продолжительность: 01:45:59
Перевод: Одноголосый закадровый (Норд Видео)
Cубтитры: нет
Оригинальная аудиодорожка: чешский
Режиссер: Зденек Трошка / Zdenek Troska
В ролях: Радек Валента, Андреа Черна, Иветта Бланаровичова, Якуб Зиндулка, Люси Била, Алоис Швеглик, Ото Шевчик, Ладислав Жупанич, Эдуард Цупак, Жиндришка Кудрова
Описание: Веселая чешская сказка о красивой дочке мельника Элишке и ее ухажерах: воображале водяном, непутёвом чертике и старом глупом герцоге. Элишка влюблена в сельского парня, ладного, работящего и ловкого. Многим сельским девушкам он нравился, но его мечтой было - жениться на принцессе. И только после приключений и передряг, затеянных, хотя и нечистыми, но романтическими и озорными силами, он поймет, что его настоящая принцесса - Элишка, и никто, кроме нее, ему не нужен...

Сэмпл: https://yadi.sk/d/H6CXDFLAm7Sa8
Тип релиза: HDTVRip 720p
Контейнер: MKV
Видео: AVC, 1196x720, 5:3, 2300 kbps, 25.000 fps
Аудио 1: RUS, AC3, 2.0, 48 kHz, 192 kbps
Аудио 2: CZE, AC3, 2.0, 48 kHz, 192 kbps

MediaInfo

General
Unique ID : 179267301600277097484437978124847282489 (0x86DDA05D121D915EB2CE7A54BF99F939)
Complete name : Принцесса с мельницы [1994] 720p.mkv
Format : Matroska
Format version : Version 4 / Version 2
File size : 1.99 GiB
Duration : 1h 45mn
Overall bit rate : 2 686 Kbps
Encoded date : UTC 2015-12-09 16:53:52
Writing application : mkvmerge v8.3.0 ('Over the Horizon') 32bit
Writing library : libebml v1.3.1 + libmatroska v1.4.2
Video
ID : 1
Format : AVC
Format/Info : Advanced Video Codec
Format profile : High@L4.1
Format settings, CABAC : Yes
Format settings, ReFrames : 4 frames
Codec ID : V_MPEG4/ISO/AVC
Duration : 1h 45mn
Bit rate : 2 300 Kbps
Width : 1 196 pixels
Height : 720 pixels
Display aspect ratio : 5:3
Frame rate mode : Constant
Frame rate : 25.000 fps
Color space : YUV
Chroma subsampling : 4:2:0
Bit depth : 8 bits
Scan type : Progressive
Bits/(Pixel*Frame) : 0.107
Stream size : 1.66 GiB (84%)
Writing library : x264 core 130 r2273 b3065e6
Encoding settings : cabac=1 / ref=3 / deblock=1:-1:-1 / analyse=0x3:0x113 / me=hex / subme=7 / psy=1 / psy_rd=1,00:0,15 / mixed_ref=1 / me_range=16 / chroma_me=1 / trellis=1 / 8x8dct=1 / cqm=0 / deadzone=21,11 / fast_pskip=1 / chroma_qp_offset=-3 / threads=3 / lookahead_threads=1 / sliced_threads=0 / nr=0 / decimate=1 / interlaced=0 / bluray_compat=0 / constrained_intra=0 / bframes=3 / b_pyramid=2 / b_adapt=1 / b_bias=0 / direct=1 / weightb=1 / open_gop=0 / weightp=2 / keyint=250 / keyint_min=25 / scenecut=40 / intra_refresh=0 / rc_lookahead=40 / rc=2pass / mbtree=1 / bitrate=2300 / ratetol=1,0 / qcomp=0,60 / qpmin=0 / qpmax=69 / qpstep=4 / cplxblur=20,0 / qblur=0,5 / vbv_maxrate=62500 / vbv_bufsize=78125 / nal_hrd=none / ip_ratio=1,40 / aq=1:1,00
Language : Czech
Default : Yes
Forced : No
Color range : Limited
Color primaries : BT.709
Transfer characteristics : BT.709
Matrix coefficients : BT.709
Audio #1
ID : 2
Format : AC-3
Format/Info : Audio Coding 3
Mode extension : CM (complete main)
Format settings, Endianness : Big
Codec ID : A_AC3
Duration : 1h 45mn
Bit rate mode : Constant
Bit rate : 192 Kbps
Channel(s) : 2 channels
Channel positions : Front: L R
Sampling rate : 48.0 KHz
Compression mode : Lossy
Stream size : 146 MiB (7%)
Title : VO (Норд Видео)
Language : Russian
Default : Yes
Forced : No
Audio #2
ID : 3
Format : AC-3
Format/Info : Audio Coding 3
Mode extension : CM (complete main)
Format settings, Endianness : Big
Codec ID : A_AC3
Duration : 1h 45mn
Bit rate mode : Constant
Bit rate : 192 Kbps
Channel(s) : 2 channels
Channel positions : Front: L R
Sampling rate : 48.0 KHz
Compression mode : Lossy
Stream size : 146 MiB (7%)
Language : Czech
Default : No
Forced : No

_________________
Показать сообщения:    

Текущее время: Сегодня 09:54

Часовой пояс: GMT



Вы не можете начинать темы
Вы не можете отвечать на сообщения
Вы не можете редактировать свои сообщения
Вы не можете удалять свои сообщения
Вы не можете голосовать в опросах
Вы не можете прикреплять файлы к сообщениям
Вы не можете скачивать файлы
Наши партнеры: интернет магазин Ивановского трикотажа textilla.ru