Ивановский Торрент трекер
Яндекс.Погода
 

[Цитировать]
HUNTER

Принцесса Лебедь 5: Королевская сказка / The Swan Princess: A Royal Family Tale- Страна: США
Жанр: мультфильм, фэнтези
Год выпуска: 2013
Продолжительность: 01:19:58
Перевод: Профессиональный (многоголосый закадровый)
Субтитры: Нет-Режиссер: Ричард Рич / Richard Rich-Описание: В сказочном королевстве принцесса Одетт, принц Дерек и их преданные лесные друзья собираются встречать рождество. Однако после того, как королевская семья удочерила маленькую прелестную девочку, неизвестный злодей похищает и уводит в лес девочку. Одетт и Дерек отправляются на её поиски. Но пока королевство готовится к празднику, хитрый и коварный колдун Ротбарт планирует уничтожить королевство.-Рейтинг:

MPAA: - Рекомендуется присутствие родителей-Мировая премьера: 25 февраля 2014
Релиз на DVD: 25 февраля 2014, «Columbia/Sony»-Релиз: -Семпл-Качество: DVDRip
Формат: AVI
Видео: 656x368 (1.78:1), 25 fps, XviD build 65 ~1163 kbps avg, 0.19 bit/pixel
Аудио: 48 kHz, MPEG Layer 3, 2 ch, ~128.00 kbps avg
Субтитры: Отсутствуют-

MI

Format : AVIFormat/Info : Audio Video InterleaveFile size : 744 MiBDuration : 1h 19mnOverall bit rate : 1 302 KbpsWriting application : VirtualDubMod 1.5.10.3 | www.virtualdub-fr.org || (build 2550/release)Writing library : VirtualDubMod build 2550/release
VideoID : 0Format : MPEG-4 VisualFormat profile : Advanced Simple@L5Format settings, BVOP : 2Format settings, QPel : NoFormat settings, GMC : No warppointsFormat settings, Matrix : CustomCodec ID : XVIDCodec ID/Hint : XviDDuration : 1h 19mnBit rate : 1 164 KbpsWidth : 656 pixelsHeight : 368 pixelsDisplay aspect ratio : 16:9Frame rate : 25.000 fpsColor space : YUVChroma subsampling : 4:2:0Bit depth : 8 bitsScan type : ProgressiveCompression mode : LossyBits/(Pixel*Frame) : 0.193Stream size : 666 MiB (89%)Writing library : XviD 65
AudioID : 1Format : MPEG AudioFormat version : Version 1Format profile : Layer 3Codec ID : 55Codec ID/Hint : MP3Duration : 1h 19mnBit rate mode : ConstantBit rate : 128 KbpsChannel count : 2 channelsSampling rate : 48.0 KHzCompression mode : LossyStream size : 73.2 MiB (10%)Alignment : Aligned on interleavesInterleave, duration : 40 ms (1.00 video frame)Interleave, preload duration : 504 msWriting library : LAME3.99rEncoding settings : -m s -V 4 -q 2 -lowpass 17 -b 128
Показать сообщения:    

Текущее время: 20-Сен 12:04

Часовой пояс: UTC - 1


Вы не можете начинать темы
Вы не можете отвечать на сообщения
Вы не можете редактировать свои сообщения
Вы не можете удалять свои сообщения
Вы не можете голосовать в опросах
Вы не можете прикреплять файлы к сообщениям
Вы не можете скачивать файлы

!ВНИМАНИЕ!
Сайт не предоставляет электронные версии произведений, а занимается лишь коллекционированием и каталогизацией ссылок, присылаемых и публикуемых на форуме нашими читателями. Если вы являетесь правообладателем какого-либо представленного материала и не желаете, чтобы ссылка на него находилась в нашем каталоге, свяжитесь с нами, и мы незамедлительно удалим ее. Файлы для обмена на трекере предоставлены пользователями сайта, и администрация не несет ответственности за их содержание. Просьба не заливать файлы, защищенные авторскими правами, а также файлы нелегального содержания!