Важное объявление!
У Нас Все раздачи мультитрекерные, при нуле пиров в релизах, можете смело вставать на закачку!
Статистика раздачи
Размер:     |    Зарегистрирован:     |    Скачан:     |   
Нет
 
     
 
 
Автор Сообщение

HUNTER

Стаж:
5 лет
Сообщений:
67959

Репутация: 101

[+] [-]
Вне форума [Профиль] [ЛС]

Принцесса Лебедь: Принцесса завтра, пират сегодня!

The Swan Princess: Princess Tomorrow, Pirate Today!
-
Страна: США
Жанр: Мультфильм, семейный
Продолжительность: 01:18:57
Год выпуска: 2016
Перевод: Профессиональный (многоголосый закадровый) - iTunes
Русские субтитры: нет-Режиссёр: Ричард Рич / Richard Rich-Роли озвучивали: Лора Бэйли, Юрий Ловенталь, Максин Блу, Келлен Гофф, Гарднер Джаэс, Клэйтон Джеймс, Катрин Лавин, Джозеф Медрано, Дженнифер Миллер-Описание: Когда родители уезжают на лето, юная любительница приключений принцесса Алиса остается под присмотром королевы Уберты, которая пытается воспитывать ее в лучших монарших традициях. Но принцесса скучает и мечтает сдать удалым пиратом. Вместе с лордом Роджерсом, лягушонком Джин-Бобом и черепашкой Спедом она отправляется в полное удивительных приключений, опасностей и открытий путешествие к дальним морям. После кораблекрушения, которое выносит отважных моряков на берег таинственного дикого острова, они встречают Лукаса – мальчика, живущего затворником. Теперь друзья должны вместе придумать, как спастись с острова, кишащего свирепыми голодными чудовищами.-Семпл: http://multi-up.com/1122920-Качество: WEB-DLRip
Формат: AVI
Видео: 720x400 (16:9), 23.976 fps, XviD build 50, 2086 Kbps
Аудио: 48 kHz, AC3 Dolby Digital, 2/0 (L,R) ch, 384 Kbps
Субтитры: "отсутствуют"

MediaInfo

General
Format : AVI Format/Info : Audio Video Interleave File size : 1.37 GiB Duration : 1h 18mn Overall bit rate : 2 479 Kbps Writing application : VirtualDubMod 1.5.10.2 (build 2540/release) Writing library : VirtualDubMod build 2540/release Video #0 ID : 0 Format : MPEG-4 Visual Format profile : Advanced Simple@L5 Format settings, BVOP : 2 Format settings, QPel : No Format settings, GMC : No warppoints Format settings, Matrix : Default (MPEG) Codec ID : XVID Codec ID/Hint : XviD Duration : 1h 18mn Bit rate : 2 086 Kbps Width : 720 pixels Height : 400 pixels Display aspect ratio : 16:9 Frame rate : 23.976 fps Color space : YUV Chroma subsampling : 4:2:0 Bit depth : 8 bits Scan type : Progressive Compression mode : Lossy Bits/(Pixel*Frame) : 0.302 Stream size : 1.15 GiB (84%) Writing library : XviD 1.2.1 (UTC 2008-12-04) Audio #1 ID : 1 Format : AC-3 Format/Info : Audio Coding 3 Mode extension : CM (complete main) Format settings, Endianness : Big Codec ID : 2000 Duration : 1h 18mn Bit rate mode : Constant Bit rate : 384 Kbps Channel(s) : 2 channels Channel positions : Front: L R Sampling rate : 48.0 KHz Bit depth : 16 bits Compression mode : Lossy Stream size : 217 MiB (15%) Alignment : Split accross interleaves Interleave, duration : 42 ms (1.00 video frame) Interleave, preload duration : 500 ms

Скриншоты


_________________
Показать сообщения:    

Текущее время: Сегодня 08:44

Часовой пояс: GMT



Вы не можете начинать темы
Вы не можете отвечать на сообщения
Вы не можете редактировать свои сообщения
Вы не можете удалять свои сообщения
Вы не можете голосовать в опросах
Вы не можете прикреплять файлы к сообщениям
Вы не можете скачивать файлы