Важное объявление!
У Нас Все раздачи мультитрекерные, при нуле пиров в релизах, можете смело вставать на закачку!
 
Автор Сообщение

HUNTER

Стаж:
4 года 6 месяцев
Сообщений:
60994

Репутация: 101

[+] [-]
Вне форума [Профиль] [ЛС]

Принцесса и лягушка / The Princess and the Frog
Страна: США
Жанр: мультфильм, мюзикл, фэнтези, мелодрама, семейный
Продолжительность: 01:37:27
Год выпуска: 2009
Перевод: Авторский (одноголосый закадровый) Андрей Гаврилов спасибо budulai-8
Русские субтитры: нет
Режиссёр: Рон Клементс, Джон Маскер / Ron Clements, John Musker
Роли озвучивали: Аника Нони Роуз, Бруно Кампос, Кит Дэвид, Дженнифер Коуди, Джим Каммингс, Питер Бартлетт, Дженифер Льюис, Опра Уинфри, Терренс Ховард
Описание: Все мы знаем, что бывает, когда принц целует заколдованную в лягушку принцессу. Но что случится, если переодетая в принцессу официантка поцелует лягушку-принца?
Команда мультипликаторов под руководством Рона Клементса и Джона Маскера, создателей «Русалочки» и «Аладдина», а также обладатель премии «Оскар» композитор Рэнди Ньюман поведают самую прекрасную историю любви на свете… с участием лягушек, магии Вуду и поющего аллигатора.

Качество: HDRip спасибо Serval
Формат: AVI
Видео: XviD, 720x400 (1.80:1), 23.976 fps, XviD build 50 ~1676 kbps avg, 0.24 bit/pixel
Аудио: AC3, 48 kHz, AC3 Dolby Digital, 3/2 (L,C,R,l,r) + LFE ch, ~448 kbps
Субтитры: отсутствуют

Подробные технические данные

Полное имя : Принцесса и лягушка.aviФормат : AVIФормат/Информация : Audio Video InterleaveРазмер файла : 1,45 ГбайтПродолжительность : 1 ч. 37 м.Общий поток : 2134 Кбит/секПрограмма кодирования : VirtualDubMod 1.5.10.2 (build 2540/release)
ВидеоИдентификатор : 0Формат : MPEG-4 VisualПрофиль формата : Advanced Simple@L5Параметр BVOP формата : 1Параметр QPel формата : НетПараметр GMC формата : Без точки переходаПараметр матрицы формата : Default (MPEG)Идентификатор кодека : XVIDИдентификатор кодека/Подсказка : XviDПродолжительность : 1 ч. 37 м.Битрейт : 1676 Кбит/секШирина : 720 пикселейВысота : 400 пикселейСоотношение сторон : 16:9Частота кадров : 23,976 кадра/секЦветовое пространство : YUVСубдискретизация насыщенности : 4:2:0Битовая глубина : 8 битТип развёртки : ПрогрессивнаяМетод сжатия : С потерямиБит/(Пиксели*Кадры) : 0.243Размер потока : 1,14 Гбайт (79%)Библиотека кодирования : XviD 1.2.1 (UTC 2008-12-04)
АудиоИдентификатор : 1Формат : AC-3Формат/Информация : Audio Coding 3Расширение режима : CM (complete main)Параметр Endianness формата : BigИдентификатор кодека : 2000Продолжительность : 1 ч. 37 м.Вид битрейта : ПостоянныйБитрейт : 448 Кбит/секКаналы : 6 каналовРасположение каналов : Front: L C R, Side: L R, LFEЧастота : 48,0 КГцБитовая глубина : 16 битМетод сжатия : С потерямиРазмер потока : 312 Мбайт (21%)Выравнивание : Разделение по промежуткамПродолжительность промежутка : 42 мс. (1,00 видеокадр)Время предзагрузки промежутка : 500 мс.

Скриншоты


_________________
Показать сообщения:    

Текущее время: Сегодня 12:56

Часовой пояс: GMT



Вы не можете начинать темы
Вы не можете отвечать на сообщения
Вы не можете редактировать свои сообщения
Вы не можете удалять свои сообщения
Вы не можете голосовать в опросах
Вы не можете прикреплять файлы к сообщениям
Вы не можете скачивать файлы
Наши партнеры: интернет магазин Ивановского трикотажа textilla.ru