Ивановский Торрент трекер
Яндекс.Погода
 

[Цитировать]
HUNTER

Прикуси пулю / Вкуси пулю / Закуси пулю / Преодолеть себя / Через не могу / Сжав зубы / Bite the Bullet
-Страна: США
Жанр: вестерн
Год выпуска: 1975
Продолжительность: 02:11:07-Перевод : Профессиональный (многоголосый закадровый)
Cубтитры: английский
Оригинальная аудиодорожка: английский-Режиссер: Ричард Брукс / Richard Brooks-В ролях: Джин Хэкмен, Кэндис Берген, Джеймс Коберн, Бен Джонсон, Иэн Бэннен, Ян-Майкл Винсент, Роберт Доннер, Джин Уиллз, Марио Артега, Дэбни Коулмен-Описание:
Начало ХХ века. Проводятся лошадиные скачки. Но не на ипподроме, а по пересеченной местности. Всадники несутся во всю прыть, стремясь покрыть расстояние в 600 миль в кратчайшие сроки. Кто-то пользуется любой возможностью помешать сопернику, кто-то, наоборот, готов всегда прийти на выручку, пусть даже и конкуренту…-Сэмпл: Скачать-Тип релиза: BDRip 720p
Контейнер: MKV
Видео: 1 280x544 (2.35:1); 8000 Kbps; 23.976 fps; 0.479 bpp
Аудио 1: Russian; AC3; 48.0 KHz; 2ch; 192 Kbps
Аудио 2: English; AC3; 48.0 KHz; 6ch; 640 Kbps

x264

x264 [info]: frame I:1284 Avg QP:17.34 size:140995
x264 [info]: frame P:39264 Avg QP:19.75 size: 65095
x264 [info]: frame B:148093 Avg QP:21.64 size: 34647
x264 [info]: consecutive B-frames: 1.9% 2.7% 9.1% 11.5% 13.7% 48.8% 5.5% 1.8% 1.4% 1.2% 0.9% 1.1% 0.5%

MediaInfo

Format : Matroska
Format version : Version 4 / Version 2
File size : 8.09 GiB
Duration : 2h 11mn
Overall bit rate : 8 834 Kbps
Encoded date : UTC 2015-08-20 12:31:34
Writing application : mkvmerge v8.1.0 ('Psychedelic Postcard') 64bit
Writing library : libebml v1.3.1 + libmatroska v1.4.2
Attachements : poster.jpg
DURATION : 02:11:06.816000000
NUMBER_OF_FRAMES : 245838
NUMBER_OF_BYTES : 188803584
_STATISTICS_WRITING_APP : mkvmerge v8.1.0 ('Psychedelic Postcard') 64bit
_STATISTICS_WRITING_DATE_UTC : 2015-08-20 12:31:34
_STATISTICS_TAGS : BPS DURATION NUMBER_OF_FRAMES NUMBER_OF_BYTES
Video
ID : 1
Format : AVC
Format/Info : Advanced Video Codec
Format profile : High@L4.1
Format settings, CABAC : Yes
Format settings, ReFrames : 9 frames
Codec ID : V_MPEG4/ISO/AVC
Duration : 2h 11mn
Bit rate : 8 000 Kbps
Width : 1 280 pixels
Height : 544 pixels
Display aspect ratio : 2.35:1
Frame rate mode : Constant
Frame rate : 23.976 fps
Color space : YUV
Chroma subsampling : 4:2:0
Bit depth : 8 bits
Scan type : Progressive
Bits/(Pixel*Frame) : 0.479
Stream size : 7.17 GiB (89%)
Writing library : x264 core 146 r2538 121396c
Encoding settings : cabac=1 / ref=9 / deblock=1:-3:-3 / analyse=0x3:0x133 / me=umh / subme=11 / psy=1 / psy_rd=1.08:0.00 / mixed_ref=1 / me_range=24 / chroma_me=1 / trellis=2 / 8x8dct=1 / cqm=0 / deadzone=21,11 / fast_pskip=0 / chroma_qp_offset=-2 / threads=6 / lookahead_threads=1 / sliced_threads=0 / nr=0 / decimate=0 / interlaced=0 / bluray_compat=0 / constrained_intra=0 / bframes=12 / b_pyramid=2 / b_adapt=2 / b_bias=0 / direct=3 / weightb=1 / open_gop=0 / weightp=2 / keyint=240 / keyint_min=23 / scenecut=40 / intra_refresh=0 / rc_lookahead=60 / rc=2pass / mbtree=0 / bitrate=8000 / ratetol=1.0 / qcomp=0.65 / qpmin=0 / qpmax=69 / qpstep=4 / cplxblur=20.0 / qblur=0.5 / vbv_maxrate=62500 / vbv_bufsize=78125 / nal_hrd=none / filler=0 / ip_ratio=1.40 / pb_ratio=1.30 / aq=1:1.00
Default : Yes
Forced : No
Audio #1
ID : 2
Format : AC-3
Format/Info : Audio Coding 3
Mode extension : CM (complete main)
Format settings, Endianness : Big
Codec ID : A_AC3
Duration : 2h 11mn
Bit rate mode : Constant
Bit rate : 192 Kbps
Channel(s) : 2 channels
Channel positions : Front: L R
Sampling rate : 48.0 KHz
Bit depth : 16 bits
Compression mode : Lossy
Stream size : 180 MiB (2%)
Language : Russian
Default : Yes
Forced : No
Audio #2
ID : 3
Format : AC-3
Format/Info : Audio Coding 3
Mode extension : CM (complete main)
Format settings, Endianness : Big
Codec ID : A_AC3
Duration : 2h 11mn
Bit rate mode : Constant
Bit rate : 640 Kbps
Channel(s) : 6 channels
Channel positions : Front: L C R, Side: L R, LFE
Sampling rate : 48.0 KHz
Bit depth : 16 bits
Compression mode : Lossy
Stream size : 600 MiB (7%)
Language : English
Default : No
Forced : No
Text
ID : 4
Format : UTF-8
Codec ID : S_TEXT/UTF8
Codec ID/Info : UTF-8 Plain Text
Language : English
Default : No
Forced : No

Скриншоты

Показать сообщения:    

Текущее время: 25-Сен 01:45

Часовой пояс: UTC - 1


Вы не можете начинать темы
Вы не можете отвечать на сообщения
Вы не можете редактировать свои сообщения
Вы не можете удалять свои сообщения
Вы не можете голосовать в опросах
Вы не можете прикреплять файлы к сообщениям
Вы не можете скачивать файлы

!ВНИМАНИЕ!
Сайт не предоставляет электронные версии произведений, а занимается лишь коллекционированием и каталогизацией ссылок, присылаемых и публикуемых на форуме нашими читателями. Если вы являетесь правообладателем какого-либо представленного материала и не желаете, чтобы ссылка на него находилась в нашем каталоге, свяжитесь с нами, и мы незамедлительно удалим ее. Файлы для обмена на трекере предоставлены пользователями сайта, и администрация не несет ответственности за их содержание. Просьба не заливать файлы, защищенные авторскими правами, а также файлы нелегального содержания!