Важное объявление!
У Нас Все раздачи мультитрекерные, при нуле пиров в релизах, можете смело вставать на закачку!
Статистика раздачи
Размер:     |    Зарегистрирован:     |    Скачан:     |   
Нет
 
     
 
 
Автор Сообщение

HUNTER

Стаж:
5 лет
Сообщений:
67935

Репутация: 101

[+] [-]
Вне форума [Профиль] [ЛС]

Приключения Тинтина: Дело Турнесоля
The Adventures of Tintin. The Calculus Affair
Страна: Бельгия
Жанр: мультфильм, детектив, приключения
Продолжительность: 00:57:00
Год выпуска: 1964-Перевод: Профессиональный (дублированный)
Русские субтитры: нет
Режиссёр: Рей Госсенс / Ray Goossens-Описание: В имении Муленсар начинают происходит необъяснимые вещи — трескаются зеркала, разлетаются вдребезги окна, от старинных китайских ваз остаются одни черепки. Чудеса прекращаются, как только профессор Турнесоль покидает свою лабораторию и отбывает на научную конференцию в Женеву.
Тинтин подозревает, что во всём виноваты эксперименты Турнесоля. Они с капитаном отправляются в лабораторию, где сталкиваются с подозрительным иностранцем в маске. Сбив капитана с ног, незнакомцу удаётся скрыться — но только после того, как Милу оторвал часть кармана его плаща, откуда выпала пачка сигарет. На ней друзья прочитали название женевской гостиницы, где собирался остановиться профессор. Опасаясь за безопасность своего друга, Тинтин и капитан направляются в Женеву.-Релиз: | | -• Спасибо xfiles за DVB исходник.-Качество: SATRip
Формат: AVI
Видео: 720x400 (1.80:1), 25,000 fps, XviD 65 ~1 692 kbps avg, 0.23 bit/pixel
Аудио: 48.0 kHz, MPEG Layer 3, 2/0 (L,R) ch, ~128 kbps
Субтитры: отсутствуют

MI


Общее
Полное имя : E:\incarcare\rip gata\Les.Aventures.de.Tintin-L'Affaire.Tournesol.1964.SATRip.avi
Формат : AVI
Формат/Информация : Audio Video Interleave
Размер файла : 746 Мбайт
Продолжительность : 57 м.
Общий поток : 1830 Кбит/сек
Программа кодирования : VirtualDubMod 1.5.10.2 (build 2540/release)
Библиотека кодирования : VirtualDubMod build 2540/release
Видео
Идентификатор : 0
Формат : MPEG-4 Visual
Профиль формата : Advanced Simple@L5
Параметр BVOP формата : 1
Параметр QPel формата : Нет
Параметр GMC формата : Без точки перехода
Параметр матрицы формата : Выборочная
Идентификатор кодека : XVID
Идентификатор кодека/Подсказка : XviD
Продолжительность : 57 м.
Битрейт : 1692 Кбит/сек
Ширина : 720 пикселей
Высота : 400 пикселей
Соотношение сторон : 16:9
Частота кадров : 25,000 кадров/сек
Цветовое пространство : YUV
Субдискретизация насыщенности : 4:2:0
Битовая глубина : 8 бит
Тип развёртки : Прогрессивная
Метод сжатия : С потерями
Бит/(Пиксели*Кадры) : 0.235
Размер потока : 690 Мбайт (92%)
Библиотека кодирования : XviD 65
Аудио
Идентификатор : 1
Формат : MPEG Audio
Версия формата : Version 1
Профиль формата : Layer 3
Идентификатор кодека : 55
Идентификатор кодека/Подсказка : MP3
Продолжительность : 57 м.
Вид битрейта : Постоянный
Битрейт : 128 Кбит/сек
Каналы : 2 канала
Частота : 48,0 КГц
Метод сжатия : С потерями
Размер потока : 52,2 Мбайт (7%)
Выравнивание : Соединение по промежуткам
Продолжительность промежутка : 40 мс. (1,00 видеокадр)
Время предзагрузки промежутка : 504 мс.

Скриншоты


_________________
Показать сообщения:    

Текущее время: Сегодня 04:55

Часовой пояс: GMT



Вы не можете начинать темы
Вы не можете отвечать на сообщения
Вы не можете редактировать свои сообщения
Вы не можете удалять свои сообщения
Вы не можете голосовать в опросах
Вы не можете прикреплять файлы к сообщениям
Вы не можете скачивать файлы