Важное объявление!
У Нас Все раздачи мультитрекерные, при нуле пиров в релизах, можете смело вставать на закачку!
 
Автор Сообщение

димитри37

Стаж:
4 года 4 месяца
Сообщений:
1236

Репутация: 127

[+] [-]
Вне форума [Профиль] [ЛС]

Приключения Плуто Нэша / The Adventures of Pluto Nash
Страна: США, Австралия
Студия: Warner Bros.
Жанр: комедия , боевик , фантастика .
Год выпуска: 2002
Продолжительность: 01:34:48
Перевод: Профессиональный (полное дублирование)
Cубтитры: нет
Оригинальная аудиодорожка: английский
Режиссер: Рон Андервуд / Ron Underwood
В ролях: Эдди Мерфи, Рэнди Куэйд, Розарио Доусон, Джо Пантолиано, Джей Мор, Луис Гусман, Джеймс Реборн, Питер Бойл, Пэм Гриер, Джон Клизю.
Описание: В недалеком будущем на Луне появились первые колонии. Затем в них открылись ночные клубы, одним из которых владеет бывший контрабандист Плуто Нэш. Местный криминальный авторитет делает Плуто предложение, от которого тот не должен отказываться.
Тип релиза: WEB-DL 720p
Контейнер: MKV
Видео: AVC , 1276 x 720 , 16:9 , 3723 Кбит/сек , 23,976 кадра/сек
Аудио : Русский , AC-3 , 6 каналов , 48,0 КГц , 448 Кбит/сек . Профессиональный (полное дублирование)
Аудио 2: Русский , AC-3 , 6 каналов , 48,0 КГц , 448 Кбит/сек . Профессиональный (многоголосый , закадровый)
Аудио 3: Английский , AAC , 2 канала , 48,0 КГц , 156 Кбит/сек

MediaInfo

Общее
Полное имя : The Adventures of Pluto Nash.720p.mkv
Формат : Matroska
Версия формата : Version 2
Размер файла : 3,47 Гбайт
Продолжительность : 1 ч. 35 м.
Общий поток : 5233 Кбит/сек
Дата кодирования : UTC 2013-04-27 01:04:51
Программа кодирования : mkvmerge v4.0.0 ('The Stars were mine') сборка от Jun 18 2010 16:54:49
Библиотека кодирования : libebml v1.0.0 + libmatroska v1.0.0
Видео
Идентификатор : 1
Формат : AVC
Формат/Информация : Advanced Video Codec
Профиль формата : High@L3.1
Параметр CABAC формата : Нет
Параметр ReFrames формата : 2 кадра
Параметр GOP формата : N=1
Идентификатор кодека : V_MPEG4/ISO/AVC
Продолжительность : 1 ч. 35 м.
Ширина : 1276 пикселей
Высота : 720 пикселей
Соотношение сторон : 16:9
Режим частоты кадров : Постоянный
Частота кадров : 23,976 кадра/сек
Цветовое пространство : YUV
Субдискретизация насыщенности : 4:2:0
Битовая глубина : 8 бит
Тип развёртки : Прогрессивная
Язык : English
Default : Да
Forced : Нет
Основные цвета : BT.709
Характеристики трансфера : BT.709
Коэффициенты матрицы : BT.709
Аудио #1
Идентификатор : 2
Формат : AC-3
Формат/Информация : Audio Coding 3
Расширение режима : CM (complete main)
Параметр Endianness формата : Big
Идентификатор кодека : A_AC3
Продолжительность : 1 ч. 35 м.
Вид битрейта : Постоянный
Битрейт : 448 Кбит/сек
Каналы : 6 каналов
Расположение каналов : Front: L C R, Side: L R, LFE
Частота : 48,0 КГц
Битовая глубина : 16 бит
Метод сжатия : С потерями
Размер потока : 304 Мбайт (9%)
Default : Да
Forced : Нет
Аудио #2
Идентификатор : 3
Формат : AC-3
Формат/Информация : Audio Coding 3
Расширение режима : CM (complete main)
Параметр Endianness формата : Big
Идентификатор кодека : A_AC3
Продолжительность : 1 ч. 35 м.
Вид битрейта : Постоянный
Битрейт : 448 Кбит/сек
Каналы : 6 каналов
Расположение каналов : Front: L C R, Side: L R, LFE
Частота : 48,0 КГц
Битовая глубина : 16 бит
Метод сжатия : С потерями
Размер потока : 304 Мбайт (9%)
Default : Нет
Forced : Нет
Аудио #3
Идентификатор : 4
Формат : AAC
Формат/Информация : Advanced Audio Codec
Профиль формата : LC
Идентификатор кодека : A_AAC
Продолжительность : 1 ч. 35 м.
Каналы : 2 канала
Расположение каналов : Front: L R
Частота : 48,0 КГц
Метод сжатия : С потерями
Язык : English
Default : Нет
Forced : Нет
Меню
00:00:00.000 : en:Lunar Credits.
00:02:32.000 : en:Tony Francis.
00:04:57.000 : en:Join the Club.
00:08:24.000 : en:Helping hand.
00:12:53.000 : en:Mogan's proposal.
00:15:26.000 : en:Bomb detonated.
00:19:15.000 : en:Shooting the works.
00:22:53.000 : en:Rowland knows.
00:27:19.000 : en:Where the bodies are.
00:32:49.000 : en:Nice shooting ma.
00:36:36.000 : en:I'm being stolen.
00:39:24.000 : en:Bad luck, old boy.
00:41:59.000 : en:Hideaway with maid.
00:44:39.000 : en:The Marucci file.
00:47:29.000 : en:Rowland rubout.
00:50:09.000 : en:Letting the air out.
00:52:26.000 : en:Rill-hopping.
00:58:10.000 : en:All tuckered out.
01:01:18.000 : en:Felix to the rescue.
01:04:51.000 : en:The Lunar Grand.
01:08:43.000 : en:Big-time Tony.
01:12:23.000 : en:What's Plan B?
01:16:33.000 : en:Meet Rex Carter.
01:20:22.000 : en:Which one' which?
01:25:00.000 : en:Craps, you lose.
01:26:30.000 : en:Grand reopening.
01:29:38.000 : en:End credits.

Скриншоты

Торрент обновлён , добавлен дубляж.
Показать сообщения:    

Текущее время: Сегодня 08:56

Часовой пояс: GMT



Вы не можете начинать темы
Вы не можете отвечать на сообщения
Вы не можете редактировать свои сообщения
Вы не можете удалять свои сообщения
Вы не можете голосовать в опросах
Вы не можете прикреплять файлы к сообщениям
Вы не можете скачивать файлы