Важное объявление!
У Нас Все раздачи мультитрекерные, при нуле пиров в релизах, можете смело вставать на закачку!
 
Автор Сообщение

HUNTER

Стаж:
4 года 8 месяцев
Сообщений:
62102

Репутация: 101

[+] [-]
Вне форума [Профиль] [ЛС]


Приключения мистера Пибоди и Шермана | Mr. Peabody & Sherman
«Наперегонки с историей»
-
Страна: США [DreamWorks Animation]
Жанр: фантастика, комедия, приключения, семейный
Продолжительность: 01:32:29
Год выпуска: 2014
Перевод: Профессиональный (дублированный) Blu-ray CEE
Русские субтитры: есть SRT
Режиссёр: Роб Минкофф / Rob Minkoff
Роли озвучивали: Тай Бурелл, Макс Чарльз, Эриель Винтер, Стефен Колбер, Лесли Манн, Эллисон Дженни, Стэнли Туччи, Том МакГрат, Лэйк Белл, Зак Каллисон
Роли дублировали: Леонид Парфенов (отлично озвучил), Анна Денисова, Илья Исаев, Сергей Чихачев, Максим Чихачев-ОписаниеМистер Пибоди — бизнесмен, изобретатель, ученый, нобелевский лауреат, гурман, двукратный олимпийский чемпион и гений… который кроме всего прочего является собакой. При помощи своего самого неординарного изобретения — машины ВЕЙБЕК — мистер Пибоди и его приемный сын Шерман мгновенно перемещаются в прошлое, где становятся свидетелями самых важных исторических событий и общаются с известными историческими персонажами. Но когда Шерман нарушает правила путешествий во времени, нашим героям приходится вновь отправиться в путь — на сей раз с целью восстановления цепи исторических событий и спасения будущего. Кроме того, мистеру Пибоди предстоит справиться с самой сложной для него задачей — стать настоящим отцом для Шермана.-
«Приключе́ния ми́стера Пи́боди и Ше́рмана» (Mr. Peabody & Sherman) — полнометражный компьютерный анимационный фильм производства американской киностудии DreamWorks Animation, основанный на персонажах мультипликационного сегмента «Невероятная история Пибоди» из мультсериала 1960-х годов «Приключения Роки и Бульвинкля». Distributed by 20th Century Fox
Релиз:

Сэмпл

IMDb: 7.00 (17 296)
Качество: BDRip-AVC Blu-ray Disc 1080p HDclub
Формат: MKV
Видео: AVC 3504 Kbps 1152 x 624 (1.846) 23.976 fps
Аудио: AC-3 448 Kbps 6 channels, 48.0 KHz Rus DUB Blu-ray CEE
Аудио 2: AC-3 448 Kbps 6 channels, 48.0 KHz DUB Ukr
Аудио 3: AC-3 EX 448 Kbps 6 channels, 48.0 KHz Eng
Субтитры: русские (полные, форсированные), английские (обычные, Colored, SDH, SDH-Colored), украинские (полные, форсированные)

MI | Log

Log
x264 [info]: frame I:1017 Avg QP:14.31 size:100557
x264 [info]: frame P:37904 Avg QP:16.22 size: 34259
x264 [info]: frame B:94134 Avg QP:19.52 size: 11645
x264 [info]: consecutive B-frames: 5.9% 5.4% 15.0% 36.4% 17.7% 15.0% 2.0% 0.7% 0.4% 0.3% 0.2% 0.1% 0.1% 0.1% 0.5%
x264 [info]: mb I I16..4: 9.4% 62.0% 28.6%
x264 [info]: mb P I16..4: 2.7% 15.2% 3.6% P16..4: 25.3% 29.2% 11.5% 2.8% 0.4% skip: 9.3%
x264 [info]: mb B I16..4: 0.8% 2.1% 0.5% B16..8: 31.3% 20.5% 3.9% direct: 4.4% skip:36.6% L0:41.8% L1:43.4% BI:14.7%
x264 [info]: 8x8 transform intra:67.9% inter:52.8%
x264 [info]: direct mvs spatial:99.9% temporal:0.1%
x264 [info]: coded y,uvDC,uvAC intra: 75.8% 85.8% 72.6% inter: 17.5% 19.7% 9.3%
x264 [info]: i16 v,h,dc,p: 47% 14% 3% 35%
x264 [info]: i8 v,h,dc,ddl,ddr,vr,hd,vl,hu: 11% 13% 10% 8% 10% 11% 12% 11% 14%
x264 [info]: i4 v,h,dc,ddl,ddr,vr,hd,vl,hu: 13% 13% 10% 7% 13% 12% 12% 9% 11%
x264 [info]: i8c dc,h,v,p: 39% 27% 17% 17%
x264 [info]: Weighted P-Frames: Y:2.7% UV:2.1%
x264 [info]: ref P L0: 51.2% 8.0% 16.4% 6.5% 4.9% 3.7% 3.0% 1.7% 1.5% 1.4% 1.4% 0.4% 0.0%
x264 [info]: ref B L0: 71.7% 11.6% 6.4% 3.0% 2.3% 1.8% 1.4% 0.9% 0.5% 0.3%
x264 [info]: ref B L1: 92.0% 8.0%
x264 [info]: kb/s:3599.65
x264 [total]: encoded 133055 frames, 7.37 fps, 3599.65 kb/s, duration 5:00:54.80
Format                                   : MatroskaFormat version                           : Version 4 / Version 2File size                                : 3.20 GiBDuration                                 : 1h 32mnOverall bit rate                         : 4 947 KbpsEncoded date                             : UTC 2015-03-21 20:08:53Writing application                      : mkvmerge v6.7.0 ('Back to the Ground') 32bit built on Jan  8 2014 15:03:17Writing library                          : libebml v1.3.0 + libmatroska v1.4.1
VideoID : 1Format : AVCFormat/Info : Advanced Video CodecFormat profile : High@L4.1Format settings, CABAC : YesFormat settings, ReFrames : 11 framesCodec ID : V_MPEG4/ISO/AVCDuration : 1h 32mnBit rate : 3 504 KbpsWidth : 1 152 pixelsHeight : 624 pixelsDisplay aspect ratio : 1.85:1Frame rate mode : ConstantFrame rate : 23.976 fpsColor space : YUVChroma subsampling : 4:2:0Bit depth : 8 bitsScan type : ProgressiveBits/(Pixel*Frame) : 0.203Stream size : 2.26 GiB (71%)Title : Mr. Peabody & Sherman (2014) [rutracker.org]Writing library : x264 core 146 r2538kMod 121396cEncoding settings : cabac=1 / ref=11 / deblock=1:-2:-1 / analyse=0x3:0x133 / me=umh / subme=11 / psy=1 / fade_compensate=0.00 / psy_rd=1.00:0.05 / mixed_ref=1 / me_range=32 / chroma_me=1 / trellis=2 / 8x8dct=1 / cqm=0 / deadzone=21,11 / fast_pskip=0 / chroma_qp_offset=-3 / threads=12 / lookahead_threads=3 / sliced_threads=0 / nr=0 / decimate=1 / interlaced=0 / bluray_compat=0 / constrained_intra=0 / fgo=0 / bframes=14 / b_pyramid=2 / b_adapt=2 / b_bias=0 / direct=3 / weightb=1 / open_gop=0 / weightp=2 / keyint=250 / keyint_min=23 / scenecut=40 / intra_refresh=0 / rc_lookahead=80 / rc=crf / mbtree=0 / crf=17.2000 / qcomp=0.60 / qpmin=0 / qpmax=69 / qpstep=4 / vbv_maxrate=50000 / vbv_bufsize=62500 / crf_max=0.0 / nal_hrd=none / filler=0 / ip_ratio=1.40 / pb_ratio=1.30 / aq=3:0.90Language : EnglishDefault : YesForced : No
Audio #1ID : 2Format : AC-3Format/Info : Audio Coding 3Mode extension : CM (complete main)Format settings, Endianness : BigCodec ID : A_AC3Duration : 1h 32mnBit rate mode : ConstantBit rate : 448 KbpsChannel(s) : 6 channelsChannel positions : Front: L C R, Side: L R, LFESampling rate : 48.0 KHzBit depth : 16 bitsCompression mode : LossyStream size : 296 MiB (9%)Title : DUB Blu-ray CEELanguage : RussianDefault : YesForced : No
Audio #2ID : 3Format : AC-3Format/Info : Audio Coding 3Mode extension : CM (complete main)Format settings, Endianness : BigCodec ID : A_AC3Duration : 1h 32mnBit rate mode : ConstantBit rate : 448 KbpsChannel(s) : 6 channelsChannel positions : Front: L C R, Side: L R, LFESampling rate : 48.0 KHzBit depth : 16 bitsCompression mode : LossyStream size : 296 MiB (9%)Title : DUBLanguage : UkrainianDefault : NoForced : No
Audio #3ID : 4Format : AC-3Format/Info : Audio Coding 3Mode extension : CM (complete main)Format settings, Endianness : BigCodec ID : A_AC3Duration : 1h 32mnBit rate mode : ConstantBit rate : 448 KbpsChannel(s) : 6 channelsChannel positions : Front: L C R, Side: L R, LFESampling rate : 48.0 KHzBit depth : 16 bitsCompression mode : LossyStream size : 296 MiB (9%)Title : Original EXLanguage : EnglishDefault : NoForced : No
Text #1ID : 5Format : UTF-8Codec ID : S_TEXT/UTF8Codec ID/Info : UTF-8 Plain TextTitle : ForcedLanguage : RussianDefault : YesForced : No
Text #2ID : 6Format : UTF-8Codec ID : S_TEXT/UTF8Codec ID/Info : UTF-8 Plain TextTitle : FullLanguage : RussianDefault : NoForced : No
Text #3ID : 7Format : UTF-8Codec ID : S_TEXT/UTF8Codec ID/Info : UTF-8 Plain TextTitle : FullLanguage : EnglishDefault : NoForced : No
Text #4ID : 8Format : UTF-8Codec ID : S_TEXT/UTF8Codec ID/Info : UTF-8 Plain TextTitle : SDHLanguage : EnglishDefault : NoForced : No
Text #5ID : 9Format : UTF-8Codec ID : S_TEXT/UTF8Codec ID/Info : UTF-8 Plain TextTitle : SDH-ColoredLanguage : EnglishDefault : NoForced : No
Text #6ID : 10Format : UTF-8Codec ID : S_TEXT/UTF8Codec ID/Info : UTF-8 Plain TextTitle : ForcedLanguage : UkrainianDefault : NoForced : No
Text #7ID : 11Format : UTF-8Codec ID : S_TEXT/UTF8Codec ID/Info : UTF-8 Plain TextTitle : FullLanguage : UkrainianDefault : NoForced : No
Menu00:00:00.000 : en:00:00:00.00000:03:48.061 : en:00:03:48.06100:07:12.223 : en:00:07:12.22300:11:02.495 : en:00:11:02.49500:13:30.018 : en:00:13:30.01800:17:29.465 : en:00:17:29.46500:21:48.516 : en:00:21:48.51600:26:39.306 : en:00:26:39.30600:28:40.177 : en:00:28:40.17700:30:53.101 : en:00:30:53.10100:33:57.452 : en:00:33:57.45200:35:29.919 : en:00:35:29.91900:37:47.182 : en:00:37:47.18200:41:27.652 : en:00:41:27.65200:44:47.685 : en:00:44:47.68500:48:16.352 : en:00:48:16.35200:51:48.981 : en:00:51:48.98100:54:56.543 : en:00:54:56.54300:58:32.801 : en:00:58:32.80101:00:49.187 : en:01:00:49.18701:02:53.186 : en:01:02:53.18601:04:39.084 : en:01:04:39.08401:08:22.265 : en:01:08:22.26501:11:13.728 : en:01:11:13.72801:14:52.655 : en:01:14:52.65501:20:27.448 : en:01:20:27.44801:21:40.312 : en:01:21:40.31201:22:39.580 : en:01:22:39.580

Скриншоты | Rip vs Source

-


Rip vs Source
Rip

Source

_________________
Показать сообщения:    

Текущее время: Сегодня 03:01

Часовой пояс: GMT



Вы не можете начинать темы
Вы не можете отвечать на сообщения
Вы не можете редактировать свои сообщения
Вы не можете удалять свои сообщения
Вы не можете голосовать в опросах
Вы не можете прикреплять файлы к сообщениям
Вы не можете скачивать файлы
Наши партнеры: интернет магазин Ивановского трикотажа textilla.ru